<?xml version="1.0" standalone="no"?>
<!DOCTYPE svg PUBLIC "-//W3C//DTD SVG 1.1//EN" "http://www.w3.org/Graphics/SVG/1.1/DTD/svg11.dtd" >
<svg xmlns="http://www.w3.org/2000/svg">
<metadata>
This is a custom SVG webfont generated by Font Squirrel.
Copyright   : Copyright  2009 ParaType Ltd All rights reserved
Designer    : AKorolkova OUmpeleva VYefimov
Foundry     : ParaType Ltd
Foundry URL : httpwwwparatypecom
</metadata>
<defs>
<font id="webfontdeSwgHNj" horiz-adv-x="1116" >
<font-face units-per-em="2048" ascent="1536" descent="-512" />
<missing-glyph horiz-adv-x="546" />
<glyph unicode="&#xfb01;" horiz-adv-x="1105" d="M946 1024v-1024h-164v881h-413v-881h-164v881h-160v143h160v57q0 193 95 280t280 87q121 0 215 -23.5t147 -56.5l-55 -131q-55 35 -131 51.5t-162 16.5q-76 0 -120 -17.5t-67.5 -53.5t-30.5 -89t-7 -121h577z" />
<glyph unicode="&#xfb02;" horiz-adv-x="1193" d="M770 1298q-31 6 -88 11.5t-113 5.5q-70 0 -109.5 -19.5t-60 -57.5t-25.5 -92t-5 -122h211v-143h-211v-881h-164v881h-160v143h160v57q0 193 83 285t277 92q41 0 92.5 -3t103.5 -8t98 -11t75 -15v-1169q0 -72 25.5 -102.5t68.5 -30.5q29 0 59.5 4t69.5 18l17 -129 q-16 -8 -40 -15t-50.5 -11t-53 -7.5t-47.5 -3.5q-92 0 -152.5 52.5t-60.5 177.5v1093z" />
<glyph unicode=" "  horiz-adv-x="546" />
<glyph unicode="&#x09;" horiz-adv-x="546" />
<glyph unicode="&#xa0;" horiz-adv-x="546" />
<glyph unicode="!" horiz-adv-x="624" d="M260 1434h170v-711l-35 -361h-100l-35 361v711zM225 94q0 55 32 87t85 32q55 0 88 -31.5t33 -87.5q0 -53 -33 -86t-88 -33q-53 0 -85 33t-32 86z" />
<glyph unicode="&#x22;" horiz-adv-x="686" d="M424 1434h160l-63 -396h-97v396zM184 1434h160l-63 -396h-97v396z" />
<glyph unicode="#" d="M573 461h-215l-79 -342h-142l80 342h-160l29 131h162l63 268h-151l28 131h154l78 324h141l-78 -324h215l78 324h142l-78 -324h157l-32 -131h-156l-64 -268h150l-33 -131h-147l-80 -342h-141zM389 592h215l64 268h-215z" />
<glyph unicode="$" d="M496 -25q-113 2 -200 19.5t-140 46.5l55 149q41 -25 111.5 -45t173.5 -22v553q-61 31 -122 65.5t-108 82.5t-75.5 114t-28.5 156q0 147 83 241.5t251 116.5v186h139v-180q104 -4 170.5 -19.5t120.5 -39.5l-49 -144q-41 20 -98.5 36t-143.5 20v-506q63 -33 126.5 -71 t114 -87t81 -114.5t30.5 -153.5q0 -160 -89 -263.5t-263 -131.5v-189h-139v180zM817 365q0 49 -17.5 88t-46 69.5t-67.5 55t-84 47.5v-498q94 14 154.5 73t60.5 165zM332 1104q0 -88 56 -143.5t140 -100.5v449q-109 -12 -152.5 -71.5t-43.5 -133.5z" />
<glyph unicode="%" horiz-adv-x="1583" d="M143 1110q0 92 24.5 157.5t66.5 108.5t100.5 62.5t126.5 19.5t126 -18.5t100 -59.5t66.5 -107.5t24.5 -162.5t-24.5 -162.5t-66.5 -107.5t-100.5 -59.5t-125.5 -18.5q-68 0 -126.5 18.5t-100.5 59.5t-66.5 107.5t-24.5 162.5zM295 1110q0 -123 44 -176t122 -53 q39 0 69.5 11t52 36.5t32.5 69.5t11 112t-11 112t-32.5 69.5t-52.5 36.5t-69 11q-78 0 -122 -48t-44 -181zM874 350q0 92 24.5 157.5t66.5 108.5t100.5 62.5t126.5 19.5t126 -18.5t100 -59.5t66.5 -107.5t24.5 -162.5t-24.5 -162.5t-66.5 -107.5t-100.5 -59.5t-125.5 -18.5 q-68 0 -126.5 18.5t-100.5 59.5t-66.5 107.5t-24.5 162.5zM1026 350q0 -123 44 -176t122 -53q39 0 69.5 11t52 36.5t32.5 69.5t11 112t-11 112t-32.5 69.5t-52.5 36.5t-69 11q-78 0 -122 -48t-44 -181zM1305 1460l100 -78l-1051 -1407l-102 80z" />
<glyph unicode="&#x26;" horiz-adv-x="1667" d="M242 383q0 82 28.5 156.5t77.5 138t111.5 117t130.5 94.5q-49 74 -85 147.5t-36 159.5q0 49 16.5 96t52 84t92 59.5t136.5 22.5q84 0 141.5 -21.5t92 -56t50 -77.5t15.5 -89q0 -86 -66.5 -177t-210.5 -175q33 -59 77 -121.5t93 -124.5l101 -121q51 -60 102 -112 q23 25 45.5 62.5t44 79.5t39 87t31.5 86l127 -59q-12 -35 -34.5 -83t-50.5 -98l-56.5 -96.5t-53.5 -76.5q43 -41 78 -71t64.5 -51.5t57.5 -38.5l56 -34l-102 -115q-109 53 -248 191q-37 -37 -81 -71t-99 -60.5t-121.5 -43t-146.5 -16.5q-96 0 -181.5 27t-149 79t-101 128 t-37.5 174zM1063 268q-59 59 -117 129l-109 140l-96.5 134t-74.5 113q-55 -41 -102.5 -84t-83.5 -91t-55 -103t-19 -119q0 -63 26.5 -113.5t72.5 -84t105.5 -52t124.5 -18.5q51 0 99.5 13t91.5 33.5t78.5 47t58.5 55.5zM629 1196q0 -61 25.5 -121.5t66.5 -120.5 q109 70 150.5 127.5t41.5 100.5q0 66 -31.5 106.5t-109.5 40.5q-74 0 -108.5 -37t-34.5 -96z" />
<glyph unicode="'" horiz-adv-x="446" d="M184 1434h160l-63 -396h-97v396z" />
<glyph unicode="(" horiz-adv-x="573" d="M465 -451q-94 98 -159.5 216t-105.5 242t-58.5 250t-18.5 241q0 113 18.5 237.5t59.5 250.5t107.5 247t162.5 225l98 -72q-82 -104 -136 -215.5t-87 -226.5t-46 -228.5t-13 -217.5q0 -98 15 -214t49 -231.5t88.5 -226.5t129.5 -201z" />
<glyph unicode=")" horiz-adv-x="573" d="M109 1458q94 -98 159.5 -216t105.5 -241.5t58.5 -249.5t18.5 -241q0 -113 -18.5 -238t-59.5 -250.5t-107.5 -246.5t-163.5 -226l-98 72q82 104 137.5 217t87 227.5t45 227.5t13.5 217q0 98 -16.5 213t-50.5 231.5t-87 227t-129 200.5z" />
<glyph unicode="*" horiz-adv-x="718" d="M266 1464l51 -86l37 -114l43 116l49 82l99 -53l-53 -88l-95 -98l140 24h98v-114h-94l-131 24l94 -98l47 -80l-96 -57l-54 86l-47 125l-39 -119l-51 -86l-102 57l55 86l86 86l-119 -24h-102v114h102l127 -24l-92 90l-53 94z" />
<glyph unicode="+" horiz-adv-x="1034" d="M82 766h360v369h148v-369h360v-148h-360v-368h-148v368h-360v148z" />
<glyph unicode="," horiz-adv-x="399" d="M100 88q0 49 33 80t84 31q63 0 103 -45t40 -131q0 -74 -20.5 -129.5t-53 -95.5t-71.5 -65.5t-78 -37.5l-51 80q74 29 109.5 89t35.5 122q-18 -6 -34 -6q-41 0 -69 27.5t-28 80.5z" />
<glyph unicode="-" horiz-adv-x="737" d="M121 666h495v-152h-495v152z" />
<glyph unicode="." horiz-adv-x="438" d="M100 94q0 55 32 87t85 32q55 0 88 -31.5t33 -87.5q0 -53 -33 -86t-88 -33q-53 0 -85 33t-32 86z" />
<glyph unicode="/" horiz-adv-x="724" d="M672 1458l129 -57l-748 -1688l-129 58z" />
<glyph unicode="0" d="M88 717q0 369 120 555t349 186q248 0 359.5 -183t111.5 -558q0 -369 -120 -555.5t-351 -186.5q-244 0 -356.5 195t-112.5 547zM258 717q0 -133 17.5 -242.5t54.5 -188.5t93 -123t134 -44q156 0 228.5 144.5t72.5 453.5q0 131 -15.5 241.5t-51 190.5t-93 123t-141.5 43 q-154 0 -226.5 -145.5t-72.5 -452.5z" />
<glyph unicode="1" d="M221 152h287v991l20 121l-82 -97l-225 -161l-78 104l451 348h74v-1306h280v-152h-727v152z" />
<glyph unicode="2" d="M913 1108q0 -109 -39.5 -222.5t-104 -228t-144.5 -224t-160 -208.5l-100 -88v-8l131 23h446v-152h-815v59l109 117q63 70 131.5 155t135 180t121 193.5t87 194.5t32.5 182q0 100 -57 167t-174 67q-78 0 -151.5 -32t-127.5 -73l-67 117q72 61 170 96t211 35 q88 0 155.5 -25.5t114.5 -72.5t71.5 -111.5t24.5 -140.5z" />
<glyph unicode="3" d="M479 119q70 0 129.5 20.5t102.5 60.5t67.5 95t24.5 121q0 143 -85 212.5t-235 69.5h-151v60l295 454l94 91l-133 -21h-406v152h731v-60l-325 -489l-72 -60v-4l70 15q82 -2 151.5 -30t120.5 -80t80 -125t29 -165q0 -111 -39 -196.5t-105.5 -144t-157 -89.5t-190.5 -31 q-92 0 -165.5 14.5t-129.5 37.5l43 145q47 -23 111.5 -38t144.5 -15z" />
<glyph unicode="4" d="M1073 440h-242v-440h-159v440h-631v68l680 948h110v-872h242v-144zM672 1030l20 168h-6l-72 -139l-288 -391l-99 -101l144 17h301v446z" />
<glyph unicode="5" d="M436 119q141 0 233.5 82t92.5 237q0 150 -91 223.5t-251 73.5l-172 -10v709h639v-152h-486v-408l88 5q203 -2 320 -113t117 -317q0 -115 -39 -204t-105.5 -148.5t-156.5 -90.5t-193 -31q-92 0 -155.5 10.5t-118.5 30.5l43 140q47 -18 101 -27.5t134 -9.5z" />
<glyph unicode="6" d="M1008 432q0 -94 -29 -177t-84 -145.5t-137 -98.5t-187 -36q-102 0 -184 33t-141.5 97.5t-91 158.5t-31.5 217q0 203 52 374t144.5 298t218.5 206t273 99l35 -131q-115 -20 -209 -77.5t-165 -141.5t-116 -188.5t-61 -214.5q33 55 110.5 101t190.5 46q193 0 302.5 -110.5 t109.5 -309.5zM838 416q0 145 -68 219t-209 74q-100 0 -173 -49.5t-101 -110.5q-4 -29 -4 -47v-41q0 -63 17 -125t54 -110t91.5 -77.5t127.5 -29.5q59 0 107.5 22.5t83.5 61.5t54.5 94.5t19.5 118.5z" />
<glyph unicode="7" d="M225 0l514 1200l90 100l-120 -18h-584v152h856v-56l-590 -1378h-166z" />
<glyph unicode="8" d="M139 342q0 129 67.5 224.5t211.5 172.5q-51 31 -95 65t-78 77t-53.5 96t-19.5 123q0 80 27.5 145.5t80 112.5t125 73.5t164.5 26.5q86 0 156 -24.5t118 -67.5t74.5 -102.5t26.5 -130.5q0 -117 -53 -206t-176 -175q53 -31 101 -68t84 -82t56.5 -101.5t20.5 -127.5 q0 -88 -28.5 -161t-84 -125t-135.5 -82t-182 -30q-98 0 -174 29t-128 78t-79 115.5t-27 144.5zM817 362q0 61 -24.5 107.5t-64.5 84.5t-91 68.5t-107 59.5q-125 -70 -178 -156t-53 -164q0 -49 16.5 -94t49 -77.5t81 -52t111.5 -19.5q51 0 98 15.5t83 45t57.5 75.5t21.5 107z M332 1104q0 -57 22.5 -101.5t60.5 -79t87 -64.5t102 -56q92 72 136 141.5t44 153.5q0 104 -64.5 160.5t-154.5 56.5q-55 0 -98 -18.5t-74 -47t-46 -66.5t-15 -79z" />
<glyph unicode="9" d="M106 999q0 98 29 182.5t84 146t138 96t194 34.5q209 0 325.5 -135t116.5 -381q0 -231 -52 -404t-144 -292t-218 -185.5t-274 -85.5l-37 131q119 18 214.5 69.5t164 129.5t111.5 177.5t59 215.5q-55 -66 -121.5 -91t-175.5 -25q-84 0 -158.5 27.5t-132 80.5t-90.5 131 t-33 178zM276 1016q0 -145 77 -218t202 -73q100 0 172 33t102 86q4 27 5 47v43q0 74 -17.5 142.5t-52.5 122.5t-91.5 85t-131.5 31q-125 0 -195 -79t-70 -220z" />
<glyph unicode=":" horiz-adv-x="448" d="M186 920q0 55 32 86.5t85 31.5q55 0 88 -31.5t33 -86.5q0 -53 -33 -86t-88 -33q-53 0 -85 33t-32 86zM186 94q0 55 32 87t85 32q55 0 88 -31.5t33 -87.5q0 -53 -33 -86t-88 -33q-53 0 -85 33t-32 86z" />
<glyph unicode=";" horiz-adv-x="524" d="M182 88q0 49 33 80t84 31q63 0 103 -45t40 -131q0 -74 -20.5 -129.5t-53 -95.5t-71.5 -65.5t-78 -37.5l-51 80q74 29 109.5 89t35.5 122q-18 -6 -34 -6q-41 0 -69 27.5t-28 80.5zM197 920q0 55 31.5 86.5t84.5 31.5q55 0 88 -31.5t33 -86.5q0 -53 -32.5 -86t-88.5 -33 q-53 0 -84.5 33t-31.5 86z" />
<glyph unicode="&#x3c;" horiz-adv-x="1034" d="M86 625v59l774 473l78 -127l-485 -297l-187 -78l185 -65l497 -295l-78 -123z" />
<glyph unicode="=" horiz-adv-x="1034" d="M82 936h868v-148h-868v148zM82 596h868v-147h-868v147z" />
<glyph unicode="&#x3e;" horiz-adv-x="1034" d="M948 705v-60l-774 -473l-78 125l486 297l186 78l-184 65l-498 295l78 125z" />
<glyph unicode="?" horiz-adv-x="892" d="M307 362q-2 10 -2 23v23q0 86 25.5 151.5t63.5 119.5t82 101t82 95.5t63.5 102.5t25.5 124q0 94 -54 153.5t-181 59.5q-74 0 -150 -25.5t-131 -60.5l-55 127q78 47 164 74.5t213 27.5q90 0 158.5 -25.5t114.5 -70.5t68.5 -106.5t22.5 -131.5q0 -92 -27.5 -160.5 t-69.5 -125t-90 -105.5t-90 -103.5t-70 -117.5t-28 -150h-135zM266 94q0 55 32 87t85 32q55 0 88 -31.5t33 -87.5q0 -53 -33 -86t-88 -33q-53 0 -85 33t-32 86z" />
<glyph unicode="@" horiz-adv-x="2179" d="M1448 1006h70l-105 -588q-10 -53 -15 -95t-5 -75q0 -51 17 -74.5t60 -23.5q70 0 138.5 36.5t122 104t87 163t33.5 214.5q0 158 -53 278.5t-149.5 203.5t-229.5 126t-293 43q-166 0 -312 -61.5t-253.5 -170t-170 -260t-62.5 -329.5q0 -182 56 -325.5t160.5 -242 t250 -149.5t323.5 -51q59 0 135 13t138 44l41 -131q-92 -39 -170 -52.5t-168 -13.5q-190 0 -357.5 57.5t-291 170t-195.5 279.5t-72 386q0 223 77 403.5t208 307.5t305 195.5t369 68.5q184 0 341.5 -54t273.5 -155.5t182.5 -248t66.5 -332.5q0 -131 -45 -251t-122 -210 t-179.5 -144.5t-216.5 -54.5q-86 0 -137.5 37t-51.5 137q0 18 2 40t6 46h-8q-29 -47 -67.5 -93t-86.5 -83t-102.5 -60.5t-113.5 -23.5q-49 0 -94.5 21.5t-78 62.5t-52 97.5t-19.5 127.5q0 131 43 258t115.5 225.5t170 159t205.5 60.5q76 0 121 -22.5t88 -55.5zM1331 805 q-35 41 -69.5 56.5t-87.5 15.5q-80 0 -150 -48.5t-120 -125t-79.5 -172t-29.5 -187.5q0 -80 32.5 -136t118.5 -56q41 0 85 26.5t87 72.5t82 103.5t70 116.5z" />
<glyph unicode="A" horiz-adv-x="1198" d="M856 397h-528l-144 -397h-168l543 1456h78l545 -1456h-178zM383 545h422l-160 436l-51 217h-2l-51 -221z" />
<glyph unicode="B" horiz-adv-x="1196" d="M1038 1106q0 -51 -16 -104.5t-49 -99.5t-84 -81t-121 -53v-8q61 -10 117.5 -35t99.5 -68t69.5 -104t26.5 -145q0 -111 -46 -192t-120.5 -132t-171 -75.5t-196.5 -24.5h-82q-47 0 -98.5 3t-102.5 8t-90 15v1411q76 12 176.5 20.5t218.5 8.5q80 0 163 -13.5t150.5 -51 t111.5 -105.5t44 -174zM563 131q66 0 127.5 15.5t108.5 49t74.5 83t27.5 116.5q0 84 -33.5 135.5t-88 80t-122 38.5t-135.5 10h-178v-514q14 -4 41 -6t57.5 -4t63 -3t57.5 -1zM451 803q35 0 84 2t81 6q49 16 92.5 39.5t77 55.5t53 74t19.5 91q0 68 -25.5 112t-68.5 70.5 t-98.5 38t-112.5 11.5q-68 0 -124 -3.5t-85 -9.5v-487h107z" />
<glyph unicode="C" horiz-adv-x="1169" d="M1092 59q-61 -47 -155.5 -65.5t-201.5 -18.5q-129 0 -241.5 44t-196.5 134.5t-133 230.5t-49 333q0 201 54 341t143 229t200 130t225 41q123 0 201 -13t133 -36l-41 -149q-98 47 -280 47q-84 0 -166 -31t-146.5 -100.5t-103.5 -182t-39 -276.5q0 -147 37 -258 t101.5 -184.5t151.5 -110.5t189 -37q92 0 161 18.5t116 47.5z" />
<glyph unicode="D" horiz-adv-x="1339" d="M174 1434q39 6 87 9t100 4l103 2q50 1 93 1q172 0 298 -53.5t208 -148.5t122 -228t40 -293q0 -145 -38 -279.5t-120 -238t-213 -165.5t-317 -62q-33 0 -85.5 1t-107.5 4t-102 5t-68 6v1436zM561 1298h-58q-32 0 -62.5 -2t-56.5 -4t-40 -4v-1147q10 -2 39 -3l59 -2l60 -2 q29 -1 39 -1q143 0 240.5 49t155.5 132t82.5 190.5t24.5 222.5q0 100 -22.5 201.5t-77.5 183.5t-148.5 134t-234.5 52z" />
<glyph unicode="E" horiz-adv-x="1097" d="M174 1434h780v-152h-610v-469h559v-151h-559v-510h621v-152h-791v1434z" />
<glyph unicode="F" horiz-adv-x="1058" d="M174 1434h780v-152h-610v-489h569v-152h-569v-641h-170v1434z" />
<glyph unicode="G" horiz-adv-x="1253" d="M657 715h482v-631q-33 -25 -79 -45.5t-98.5 -34.5t-108.5 -21.5t-110 -7.5q-137 0 -251.5 44t-198.5 135.5t-131 231.5t-47 331q0 199 57 340t149.5 230t207 130t229.5 41q123 0 202.5 -13t135.5 -36l-43 -149q-98 47 -281 47q-86 0 -171 -30t-152.5 -99.5t-110.5 -182 t-43 -278.5q0 -152 35 -262.5t97 -183t150.5 -108.5t192.5 -36q131 0 223 51v400l-336 40v97z" />
<glyph unicode="H" horiz-adv-x="1376" d="M1032 657h-688v-657h-170v1434h170v-625h688v625h170v-1434h-170v657z" />
<glyph unicode="I" horiz-adv-x="595" d="M213 1434h170v-1434h-170v1434z" />
<glyph unicode="J" horiz-adv-x="595" d="M229 1434h170v-1119q0 -164 -72.5 -249.5t-220.5 -85.5q-16 0 -40.5 2t-49 6t-48 10t-38.5 14l33 146q57 -27 125 -27q86 0 113.5 60.5t27.5 164.5v1078z" />
<glyph unicode="K" horiz-adv-x="1249" d="M440 664h-96v-664h-170v1434h170v-668l92 29l482 639h196l-479 -617l-86 -67l104 -82l525 -668h-215z" />
<glyph unicode="L" horiz-adv-x="1058" d="M1022 0h-848v1434h170v-1282h678v-152z" />
<glyph unicode="M" horiz-adv-x="1619" d="M1276 963l20 215h-10l-78 -197l-372 -647h-52l-395 649l-74 195h-10l29 -213v-965h-160v1434h127l449 -734l67 -159h4l64 164l428 729h133v-1434h-170v963z" />
<glyph unicode="N" horiz-adv-x="1378" d="M432 938l-110 207h-9l21 -207v-938h-160v1456h90l686 -956l107 -197h10l-23 197v934h160v-1457h-90z" />
<glyph unicode="O" horiz-adv-x="1400" d="M115 717q0 358 151.5 549.5t431.5 191.5q152 0 262.5 -53t183.5 -150.5t107.5 -233.5t34.5 -304q0 -358 -152.5 -550t-435.5 -192q-150 0 -259 53.5t-182 150.5t-107.5 233.5t-34.5 304.5zM295 717q0 -119 23.5 -225.5t72.5 -187.5t126 -129t181 -48q190 0 299 144.5 t109 445.5q0 117 -23.5 224.5t-74 188t-127 129t-183.5 48.5q-188 0 -295.5 -144.5t-107.5 -445.5z" />
<glyph unicode="P" horiz-adv-x="1144" d="M174 1419q78 18 168 24.5t178 6.5q94 0 191.5 -18.5t177.5 -67.5t130 -135t50 -219q0 -131 -47 -221.5t-125 -146.5t-178.5 -80.5t-206.5 -24.5h-34q-24 0 -49.5 1t-50 3t-34.5 4v-545h-170v1419zM524 1303q-53 0 -102 -2.5t-78 -10.5v-594q10 -4 33 -5l47 -2 q25 -1 47 -1h33q70 0 138.5 13.5t123.5 48t89 98t34 162.5q0 84 -32 140t-84 90t-117.5 48.5t-131.5 14.5z" />
<glyph unicode="Q" horiz-adv-x="1400" d="M1442 -350q-49 -14 -96.5 -19.5t-94.5 -5.5q-102 0 -199.5 21.5t-188.5 47.5l-175 47q-84 22 -160 21q-49 0 -94 -12v150q29 6 55.5 10t55.5 4q86 0 171 -21.5t173 -47t180 -47t195 -21.5q90 0 178 20v-147zM115 717q0 358 151.5 549.5t431.5 191.5q152 0 262.5 -53 t183.5 -150.5t107.5 -233.5t34.5 -304q0 -358 -152.5 -550t-435.5 -192q-150 0 -259 53.5t-182 150.5t-107.5 233.5t-34.5 304.5zM295 717q0 -119 23.5 -225.5t72.5 -187.5t126 -129t181 -48q190 0 299 144.5t109 445.5q0 117 -23.5 224.5t-74 188t-127 129t-183.5 48.5 q-188 0 -295.5 -144.5t-107.5 -445.5z" />
<glyph unicode="R" horiz-adv-x="1218" d="M174 1419q78 14 179.5 22.5t185.5 8.5q94 0 179 -20.5t149.5 -67.5t103.5 -123t39 -184q0 -168 -92.5 -272.5t-233.5 -139.5l98 -76l357 -567h-199l-395 618l-201 31v-649h-170v1419zM543 1303h-56q-29 0 -55 -2.5t-50 -4.5t-38 -6v-528h160q141 0 233 69.5t92 217.5 q0 111 -75.5 182.5t-210.5 71.5z" />
<glyph unicode="S" horiz-adv-x="1087" d="M821 365q0 86 -51 140t-128 96t-167 79t-167 89t-128 129t-51 196q0 168 116.5 266t332.5 98q125 0 227 -18.5t160 -46.5l-52 -150q-47 23 -138 43.5t-206 20.5q-135 0 -202.5 -60.5t-67.5 -142.5q0 -80 51 -133t128 -95t167 -83t167 -95.5t128 -130t51 -188.5 q0 -92 -32.5 -166t-96 -127t-154 -82t-204.5 -29q-154 0 -254 24t-156 52l58 154q47 -27 139 -52.5t207 -25.5q68 0 127 13.5t102 43t68.5 75t25.5 106.5z" />
<glyph unicode="T" horiz-adv-x="1136" d="M1100 1282h-447v-1282h-170v1282h-446v152h1063v-152z" />
<glyph unicode="U" horiz-adv-x="1335" d="M997 1434h164v-957q0 -129 -33.5 -223t-96 -154.5t-150.5 -89t-195 -28.5q-254 0 -383 114.5t-129 347.5v990h170v-910q0 -109 21.5 -183.5t64.5 -120.5t107.5 -66.5t150.5 -20.5q166 0 237.5 91t71.5 300v910z" />
<glyph unicode="V" horiz-adv-x="1163" d="M547 449l49 -218h2l53 222l346 981h170l-542 -1457h-76l-553 1457h186z" />
<glyph unicode="W" horiz-adv-x="1695" d="M455 473l32 -237h2l35 241l295 957h82l297 -961l35 -237h2l37 241l241 957h166l-399 -1457h-94l-291 961l-37 217h-10l-37 -219l-291 -959h-94l-410 1457h181z" />
<glyph unicode="X" horiz-adv-x="1265" d="M530 729l-436 705h205l291 -486l51 -117l49 117l307 486h189l-451 -691l471 -743h-198l-324 514l-55 123l-54 -123l-331 -514h-191z" />
<glyph unicode="Y" horiz-adv-x="1142" d="M489 569l-473 865h199l336 -627l35 -125h2l37 129l321 623h182l-469 -863v-571h-170v569z" />
<glyph unicode="Z" d="M78 154l723 1046l86 82h-809v152h962v-154l-727 -1053l-86 -75h813v-152h-962v154z" />
<glyph unicode="[" horiz-adv-x="622" d="M174 1434h371v-144h-211v-1618h211v-143h-371v1905z" />
<glyph unicode="\" horiz-adv-x="778" d="M817 -227l-135 -60l-758 1688l137 57z" />
<glyph unicode="]" horiz-adv-x="622" d="M451 -471h-373v143h213v1618h-213v144h373v-1905z" />
<glyph unicode="^" horiz-adv-x="1024" d="M479 1456h60l346 -565h-168l-164 276l-47 142l-64 -144l-188 -274h-156z" />
<glyph unicode="_" horiz-adv-x="835" d="M0 -276h836v-144h-836v144z" />
<glyph unicode="`" horiz-adv-x="573" d="M451 1169h-93l-235 263v43h194z" />
<glyph unicode="a" horiz-adv-x="1015" d="M141 948q78 47 181.5 69.5t216.5 22.5q106 0 170.5 -28.5t98.5 -74.5t45 -101.5t11 -110.5q0 -123 -6 -239.5t-6 -221.5q0 -76 6 -143.5t23 -124.5h-121l-43 143h-10q-18 -29 -46 -56.5t-67 -49t-90 -35.5t-117 -14t-122 20.5t-97 58t-64.5 91t-23.5 120.5q0 90 37 150.5 t103.5 96.5t159.5 51.5t206 15.5h56q28 0 56 -4q6 61 7 110q0 113 -45.5 158t-163.5 45q-35 0 -75 -5t-82 -14.5t-80 -22.5t-66 -30zM432 127q57 0 102.5 15.5t78 39t54 52t31.5 55.5v170q-29 2 -58.5 3t-57.5 1q-63 0 -124 -7t-107 -26.5t-73.5 -53.5t-27.5 -85 q0 -72 51 -118t131 -46z" />
<glyph unicode="b" horiz-adv-x="1105" d="M158 1434h164v-510h8q47 59 119.5 92t158.5 33q199 0 298.5 -127t99.5 -394q0 -268 -131.5 -407t-368.5 -139q-115 0 -208 24.5t-140 52.5v1375zM580 905q-102 0 -166 -57t-92 -162v-516q39 -23 94 -34t114 -11q139 0 222.5 98.5t83.5 306.5q0 80 -14.5 150t-45.5 119 t-78.5 77.5t-117.5 28.5z" />
<glyph unicode="c" horiz-adv-x="923" d="M856 68q-61 -45 -145 -69t-176 -24q-119 0 -201 38t-134.5 109t-76 170t-23.5 220q0 260 115 398.5t330 138.5q98 0 166.5 -15.5t124.5 -44.5l-48 -141q-47 27 -104 42t-123 15q-291 0 -291 -393q0 -78 15.5 -148.5t51.5 -125t94 -87t144 -32.5q74 0 132.5 22.5 t95.5 51.5z" />
<glyph unicode="d" horiz-adv-x="1101" d="M944 352q0 -104 2 -189t19 -167h-111l-41 145h-8q-41 -72 -119 -119t-182 -47q-205 0 -304.5 129t-99.5 404q0 262 124 398t341 136q76 0 120 -8t95 -26v426h164v-1082zM530 119q104 0 166 54t84 165v508q-37 29 -84 41t-125 12q-141 0 -221 -93t-80 -298 q0 -84 13.5 -155.5t44 -123t80.5 -81t122 -29.5z" />
<glyph unicode="e" horiz-adv-x="1040" d="M905 82q-61 -49 -154.5 -78t-197.5 -29q-117 0 -203 38t-141 109t-82 169t-27 221q0 262 117 399.5t334 137.5q70 0 139.5 -15.5t124.5 -58.5t90 -122t35 -208q0 -68 -12 -149h-658q0 -90 18.5 -160t57.5 -118t101.5 -73.5t152.5 -25.5q70 0 139.5 24.5t104.5 57.5z M553 905q-121 0 -193.5 -63.5t-87.5 -216.5h508q0 156 -59 218t-168 62z" />
<glyph unicode="f" horiz-adv-x="653" d="M45 1024h160v57q0 94 15.5 164t50 114t90 65.5t137.5 21.5q66 0 116 -8t105 -31l-37 -137q-47 20 -89 26.5t-79 6.5q-53 0 -83 -16.5t-43 -48.5t-16 -78t-3 -107v-29h272v-143h-272v-881h-164v881h-160v143z" />
<glyph unicode="g" horiz-adv-x="1099" d="M942 -47q0 -199 -105.5 -293t-312.5 -94q-123 0 -197.5 15.5t-127.5 39.5l43 139q47 -18 104 -34.5t150 -16.5q86 0 140 15.5t87 51.5t45 92t12 134v98h-8q-41 -59 -104.5 -91t-165.5 -32q-207 0 -304.5 129.5t-97.5 401.5q0 262 125 398t369 136q117 0 200 -18t148 -43 v-1028zM530 121q104 0 164 52t84 163v524q-82 39 -209 39q-139 0 -219 -94t-80 -295q0 -86 14.5 -157.5t45 -123t79.5 -80t121 -28.5z" />
<glyph unicode="h" horiz-adv-x="1120" d="M815 0v584q0 80 -9 140t-33.5 100t-66.5 60.5t-110 20.5q-96 0 -174 -62.5t-100 -160.5v-682h-164v1434h164v-525h8q53 63 127.5 101.5t185.5 38.5q86 0 149.5 -19.5t105.5 -69t61.5 -132.5t19.5 -210v-618h-164z" />
<glyph unicode="i" horiz-adv-x="548" d="M193 1024h163v-1024h-163v1024zM158 1335q0 47 31.5 81t80.5 34t84 -34t35 -81t-35 -77.5t-84 -30.5t-80.5 30.5t-31.5 77.5z" />
<glyph unicode="j" horiz-adv-x="546" d="M190 1024h164v-1079q0 -190 -65.5 -284.5t-208.5 -94.5q-16 0 -30.5 1t-31.5 3v139q57 0 91 17.5t52.5 54.5t23.5 93t5 132v1018zM156 1335q0 47 31.5 81t80.5 34t84 -34t35 -81t-35 -77.5t-84 -30.5t-80.5 30.5t-31.5 77.5z" />
<glyph unicode="k" horiz-adv-x="980" d="M416 461h-94v-461h-164v1434h164v-873l84 29l317 434h190l-313 -412l-84 -67l102 -82l343 -463h-203z" />
<glyph unicode="l" horiz-adv-x="598" d="M340 252q0 -72 24.5 -102.5t69.5 -30.5q27 0 57.5 4t69.5 18l19 -129q-33 -16 -91.5 -26.5t-101.5 -10.5q-92 0 -151.5 52.5t-59.5 177.5v1229h164v-1182z" />
<glyph unicode="m" horiz-adv-x="1662" d="M758 0v580q0 82 -7.5 142t-28 101t-58 61.5t-99.5 20.5q-94 0 -156.5 -57t-86.5 -143v-705h-164v1024h114l31 -125h8q55 66 128 108t190 42q98 0 160.5 -38t97.5 -132q47 80 130 125t187 45q86 0 145.5 -19.5t98.5 -69t56.5 -133.5t17.5 -213v-614h-164v616 q0 74 -7.5 128.5t-29 90t-59 53t-99.5 17.5q-102 0 -159.5 -57t-81.5 -164v-684h-164z" />
<glyph unicode="n" horiz-adv-x="1120" d="M815 0v584q0 160 -46 240.5t-169 80.5q-109 0 -179.5 -58.5t-98.5 -146.5v-700h-164v1024h114l31 -125h8q49 66 132 108t198 42q84 0 147.5 -19.5t105.5 -69t63.5 -132.5t21.5 -210v-618h-164z" />
<glyph unicode="o" horiz-adv-x="1097" d="M100 512q0 260 116 398.5t333 138.5q115 0 200 -38t140 -109t81.5 -170t26.5 -220q0 -260 -115.5 -398.5t-332.5 -138.5q-115 0 -200 38t-140 109t-82 170t-27 220zM270 512q0 -78 15.5 -149.5t48.5 -125t86 -86t129 -32.5h3q276 0 275 393q0 80 -15 151.5t-48 125 t-86 85t-129 31.5h-3q-276 0 -276 -393z" />
<glyph unicode="p" horiz-adv-x="1107" d="M158 1024h112l31 -123h8q47 72 122 110t171 38q205 0 305.5 -121t100.5 -396q0 -129 -34 -232t-95.5 -175t-148.5 -111t-193 -39q-76 0 -120 9.5t-95 31.5v-426h-164v1434zM571 905q-104 0 -164.5 -54t-84.5 -165v-508q37 -29 84 -44t124 -15q141 0 224.5 105.5 t83.5 310.5q0 84 -14.5 152.5t-46.5 116.5t-82 74.5t-124 26.5z" />
<glyph unicode="q" horiz-adv-x="1099" d="M942 -410h-164v512h-8q-41 -61 -103.5 -94t-164.5 -33q-205 0 -303.5 130.5t-98.5 402.5q0 264 127 399t371 135q109 0 204 -20.5t140 -42.5v-1389zM530 119q104 0 164 53t84 164v524q-76 39 -209 39q-141 0 -220 -95t-79 -294q0 -86 14.5 -158.5t45 -124t79.5 -80 t121 -28.5z" />
<glyph unicode="r" horiz-adv-x="696" d="M641 866q-61 20 -117 21q-88 0 -139 -48t-63 -122v-717h-164v1024h114l31 -125h8q39 70 93.5 107.5t138.5 37.5q59 0 133 -20z" />
<glyph unicode="s" horiz-adv-x="862" d="M608 279q0 61 -36.5 96t-91 58.5t-119 45t-119 55t-91 87t-36.5 143.5q0 147 84 216t233 69q111 0 185.5 -19.5t130.5 -46.5l-39 -135q-47 23 -114 40t-142 17q-90 0 -132 -30.5t-42 -106.5q0 -53 36.5 -83t91 -53.5t119 -46t118.5 -59.5t91 -93t37 -148 q0 -66 -21.5 -123.5t-66.5 -98t-111.5 -64.5t-156.5 -24q-117 0 -199 22.5t-137 53.5l49 139q47 -27 123 -49t154 -22q88 0 145 35t57 125z" />
<glyph unicode="t" horiz-adv-x="694" d="M23 1024h159v203l164 47v-250h279v-143h-279v-568q0 -106 26.5 -150t90.5 -44q53 0 90 11t82 30l37 -125q-55 -27 -121 -43.5t-141 -16.5q-125 0 -176.5 71t-51.5 237v598h-159v143z" />
<glyph unicode="u" horiz-adv-x="1103" d="M305 1024v-584q0 -80 9.5 -140t32 -100t61 -60.5t98.5 -20.5q55 0 98 17.5t77 48t59.5 70.5t41.5 85v684h164v-733q0 -74 5 -153t18 -138h-113l-41 162h-10q-47 -80 -127 -133.5t-203 -53.5q-82 0 -144.5 19.5t-104.5 69t-63.5 132.5t-21.5 210v618h164z" />
<glyph unicode="v" horiz-adv-x="987" d="M453 424l57 -195h2l51 199l230 596h176l-437 -1047h-69l-445 1047h189z" />
<glyph unicode="w" horiz-adv-x="1505" d="M821 1024l236 -598l51 -197h4l39 201l182 594h156l-344 -1047h-80l-268 676l-39 168h-6l-41 -170l-258 -674h-80l-357 1047h179l202 -596l35 -199h2l49 203l219 592h119z" />
<glyph unicode="x" horiz-adv-x="1054" d="M426 524l-344 500h201l194 -283l58 -116l59 116l199 283h184l-346 -492l366 -532h-194l-217 311l-62 123l-63 -123l-221 -311h-183z" />
<glyph unicode="y" horiz-adv-x="954" d="M459 360l57 -196h10l45 198l199 662h166l-303 -920l-69 -194q-34 -94 -74.5 -168t-92 -118t-118.5 -44q-74 0 -121 21l28 141q27 -10 52 -10q57 0 110 60.5t88 207.5l-411 1024h188z" />
<glyph unicode="z" horiz-adv-x="915" d="M86 143l473 652l86 86h-559v143h729v-143l-477 -658l-84 -80h561v-143h-729v143z" />
<glyph unicode="{" horiz-adv-x="708" d="M281 229q0 104 -43 142.5t-121 38.5v143q78 0 121 41t43 131v496q0 96 48 155.5t146 59.5h174v-144h-102q-55 0 -81 -27.5t-26 -93.5v-485q0 -90 -43 -137t-100 -57v-13q55 -8 99 -62.5t44 -140.5v-483q0 -63 24.5 -92t84.5 -29h100v-143h-174q-92 0 -143 54.5t-51 158.5 v487z" />
<glyph unicode="|" horiz-adv-x="487" d="M174 1434h139v-1700h-139v1700z" />
<glyph unicode="}" horiz-adv-x="708" d="M481 735q0 -104 43 -142t121 -38v-143q-78 0 -121 -41t-43 -131v-496q0 -96 -48 -155.5t-146 -59.5h-174v143h102q55 0 81 28t26 93v486q0 90 42 137t99 57v12q-55 8 -98 62.5t-43 140.5v483q0 63 -25 92t-82 29h-102v144h176q90 0 141 -54.5t51 -158.5v-488z" />
<glyph unicode="~" horiz-adv-x="1034" d="M63 739q88 68 160 94.5t131 26.5q57 0 106.5 -17.5t94.5 -39t88 -38.5t90 -17q39 0 80 16t88 57l70 -125q-78 -53 -140.5 -74.5t-113.5 -21.5q-55 0 -101.5 17.5t-88.5 39t-84 39t-91 17.5q-47 0 -100 -21.5t-119 -75.5z" />
<glyph unicode="&#xa1;" horiz-adv-x="622" d="M360 -410h-170v711l35 361h101l34 -361v-711zM152 928q0 55 31.5 87t84.5 32q55 0 88 -32t33 -87q0 -53 -32.5 -86t-88.5 -33q-53 0 -84.5 33t-31.5 86z" />
<glyph unicode="&#xa2;" d="M944 68q-49 -35 -111.5 -56.5t-134.5 -29.5v-187h-145v185q-102 10 -173 52t-116 110.5t-65.5 162.5t-20.5 207q0 236 97.5 372t277.5 158v187h145v-182q72 -4 127.5 -19.5t100.5 -38.5l-47 -139q-41 20 -91.5 34.5t-103.5 18.5v-784q66 4 119 25.5t88 48.5zM348 512 q0 -68 11.5 -130.5t38 -114.5t69.5 -89t106 -51v772q-225 -43 -225 -387z" />
<glyph unicode="&#xa3;" d="M86 784h135q-25 53 -41 117t-16 150q0 201 114.5 304t313.5 103q125 0 217 -18.5t152 -46.5l-54 -146q-47 23 -126 41.5t-191 18.5q-123 0 -189.5 -66.5t-66.5 -179.5q0 -86 20.5 -151.5t48.5 -125.5h330v-143h-268q16 -47 26.5 -98t10.5 -113q0 -61 -18.5 -125.5 t-55.5 -105.5l-80 -68v-8l127 29h524v-152h-913v147q66 0 112 24t75.5 61.5t44 86t14.5 97.5q0 68 -13.5 122t-33.5 103h-199v143z" />
<glyph unicode="&#xa4;" d="M143 1221l160 -158l43 -72q86 68 211 68q121 0 211 -68l45 72l160 158l100 -101l-158 -159l-71 -46q66 -88 65 -208q0 -123 -65 -211l71 -43l158 -160l-100 -98l-160 157l-43 68q-88 -63 -213 -64q-127 0 -211 64l-43 -68l-160 -157l-100 98l158 160l69 45 q-63 86 -63 209q0 59 17.5 112t45.5 99l-69 43l-158 159zM348 707q0 -92 58.5 -153.5t150.5 -61.5t151.5 61t59.5 154q0 92 -59.5 154.5t-151.5 62.5t-150.5 -62.5t-58.5 -154.5z" />
<glyph unicode="&#xa5;" d="M227 672h193l-416 762h199l336 -627l34 -125h2l37 129l322 623h182l-416 -762h193v-123h-248v-129h248v-123h-248v-297h-170v297h-248v123h248v129h-248v123z" />
<glyph unicode="&#xa6;" horiz-adv-x="487" d="M174 422h139v-688h-139v688zM313 745h-139v689h139v-689z" />
<glyph unicode="&#xa7;" horiz-adv-x="1017" d="M117 723q0 63 31.5 123.5t84.5 107.5l84 29q-53 33 -88.5 83t-35.5 134q0 115 84.5 186.5t236.5 71.5q111 0 187.5 -18.5t132.5 -44.5l-39 -138q-49 23 -117 40.5t-141 17.5q-92 0 -136.5 -33t-44.5 -88q0 -53 40 -83t101.5 -52.5t131 -45t131 -58t101.5 -94t40 -150.5 q0 -63 -30.5 -123t-84.5 -107l-92 -28q55 -33 93 -84.5t38 -135.5q0 -63 -24.5 -111t-68.5 -81t-103.5 -49.5t-126.5 -16.5q-115 0 -188.5 19.5t-131.5 48.5l41 133q47 -23 113.5 -40t144.5 -17q86 0 133.5 27.5t47.5 93.5q0 53 -40 83.5t-101.5 53t-131.5 45t-131 58.5 t-101 93.5t-40 149.5zM737 707q0 51 -26.5 83.5t-70.5 56t-99.5 41t-110.5 38.5q-59 -27 -104 -76t-45 -123q0 -51 26.5 -84t68.5 -56.5t96 -40t110 -36.5q29 12 56.5 32.5t50 46t35.5 55.5t13 63z" />
<glyph unicode="&#xa8;" horiz-adv-x="841" d="M123 1337q0 47 27.5 76t72.5 29t73 -29t28 -76q0 -43 -28 -71.5t-73 -28.5t-72.5 28.5t-27.5 71.5zM516 1337q0 47 27.5 76t72.5 29q47 0 75 -29t28 -76q0 -43 -27.5 -71.5t-75.5 -28.5q-45 0 -72.5 28.5t-27.5 71.5z" />
<glyph unicode="&#xa9;" horiz-adv-x="1650" d="M104 594q0 170 57.5 304t156 226.5t229.5 141.5t278 49t278.5 -49t230 -141.5t155.5 -226.5t57 -304t-57 -304t-155.5 -226.5t-229.5 -141.5t-279 -49q-164 0 -297 49t-227 141.5t-145.5 226.5t-51.5 304zM248 594q0 -141 45 -251t123 -183.5t183.5 -112.5t225.5 -39 q121 0 226.5 39t183.5 112.5t123 183.5t45 251t-45 250.5t-123 183.5t-183.5 113t-226.5 39t-226 -39t-183 -113t-123 -183.5t-45 -250.5zM1063 260q-47 -27 -105.5 -41t-136.5 -14q-166 0 -253 104.5t-87 284.5q0 186 93.5 287.5t246.5 101.5q37 0 67 -4t55.5 -11t49.5 -18 l56 -22l-54 -125q-45 23 -86 31t-69 8q-86 0 -140.5 -53.5t-54.5 -194.5q0 -119 53.5 -183.5t157.5 -66.5q96 0 164 37z" />
<glyph unicode="&#xaa;" horiz-adv-x="790" d="M139 1386q51 27 135 45.5t187 18.5q127 0 174 -53.5t47 -153.5q0 -78 -3 -149.5t-3 -137.5q0 -49 3 -94t13 -84h-112l-27 94h-8q-27 -35 -76 -68.5t-137 -33.5q-106 0 -170 52t-64 143q0 63 31 106t83 69.5t123 39t152 12.5q14 0 27.5 -1t28.5 -1q2 12 2 23v22 q0 55 -24.5 77.5t-94.5 22.5q-82 0 -149.5 -15t-106.5 -36zM354 885q43 0 75 10t54.5 27.5t37 37t22.5 37.5v86q-23 2 -43 2h-43q-43 0 -82 -4t-69 -16t-47 -33.5t-17 -56.5q0 -41 29.5 -65.5t82.5 -24.5z" />
<glyph unicode="&#xab;" horiz-adv-x="978" d="M455 530l323 467l109 -86l-199 -295l-98 -84l98 -73l211 -289l-106 -88zM80 530l328 471l110 -88l-201 -297l-98 -84l98 -73l213 -291l-110 -90z" />
<glyph unicode="&#xac;" horiz-adv-x="1034" d="M84 803h868v-393h-147v245h-721v148z" />
<glyph unicode="&#xad;" horiz-adv-x="737" d="M121 666h495v-152h-495v152z" />
<glyph unicode="&#xae;" horiz-adv-x="1433" d="M174 924q0 131 43 232t118 170t173 104.5t209 35.5q113 0 212 -35.5t173 -104.5t116 -170t42 -232t-43 -232.5t-118 -170t-173.5 -104.5t-208.5 -36q-115 0 -213 36t-172 104.5t-116 170t-42 232.5zM303 924q0 -106 33 -185.5t89 -131.5t132 -78.5t160 -26.5 q88 0 163.5 25.5t131 77.5t87 131t31.5 188q0 106 -32.5 185t-89 131t-131 79t-160.5 27q-90 0 -166 -27t-131 -79t-86 -131t-31 -185zM506 1190q33 10 92 15t113 5q86 0 147.5 -35.5t61.5 -123.5q0 -66 -42 -101t-104 -39l57 -28l152 -224h-125l-147 213l-99 31v-244h-106 v531zM688 1118q-23 0 -43 -1t-33 -7v-145h70q59 0 92 18t33 64q0 71 -119 71z" />
<glyph unicode="&#xaf;" horiz-adv-x="851" d="M123 1317h606v-127h-606v127z" />
<glyph unicode="&#xb0;" horiz-adv-x="870" d="M174 1169q0 63 22.5 116.5t61.5 91.5t92 59.5t113 21.5q59 0 112.5 -19.5t92.5 -57.5t61.5 -91t22.5 -121t-22.5 -121t-61.5 -90.5t-92.5 -57t-112.5 -19.5t-112.5 19.5t-92.5 57t-61.5 90.5t-22.5 121zM303 1169q0 -78 48 -121.5t112 -43.5q63 0 111.5 44t48.5 121 q0 78 -48.5 122t-111.5 44t-111.5 -44t-48.5 -122z" />
<glyph unicode="&#xb1;" horiz-adv-x="1034" d="M82 1012h360v368h148v-368h360v-148h-360v-248h-148v248h-360v148zM82 512h868v-147h-868v147z" />
<glyph unicode="&#xb2;" horiz-adv-x="806" d="M653 1413q0 -63 -21.5 -122.5t-57 -117t-85 -114t-104.5 -113.5l-94 -65v-4l117 30h286v-129h-596v68q47 39 118 104.5t136.5 141t111.5 155.5t46 148q0 63 -41 95t-100 32q-55 0 -107.5 -19.5t-91.5 -44.5l-45 117q53 37 123.5 57.5t144.5 20.5q129 0 194.5 -63.5 t65.5 -176.5z" />
<glyph unicode="&#xb3;" horiz-adv-x="808" d="M346 887q98 0 150.5 39t52.5 114q0 66 -47 107t-152 41h-112v47l198 237l70 56l-100 -13h-267v123h525v-67l-211 -252l-52 -37v-4l48 6q113 -2 178 -67.5t65 -176.5q0 -125 -91 -200.5t-243 -75.5q-74 0 -127 12t-94 27l31 123q35 -16 80 -27.5t98 -11.5z" />
<glyph unicode="&#xb4;" horiz-adv-x="548" d="M244 1475h182v-43l-207 -263h-96z" />
<glyph unicode="&#xb5;" horiz-adv-x="1130" d="M303 1024v-580q0 -162 50 -243.5t175 -81.5q113 0 191 66.5t108 174.5v664h164v-690q0 -84 5 -169t26 -165h-113l-57 152h-8q-41 -72 -126 -124.5t-208 -52.5q-98 0 -150.5 29t-89.5 74h-10l43 -215v-273h-164v1434h164z" />
<glyph unicode="&#x3bc;" horiz-adv-x="1130" d="M303 1024v-580q0 -162 50 -243.5t175 -81.5q113 0 191 66.5t108 174.5v664h164v-690q0 -84 5 -169t26 -165h-113l-57 152h-8q-41 -72 -126 -124.5t-208 -52.5q-98 0 -150.5 29t-89.5 74h-10l43 -215v-273h-164v1434h164z" />
<glyph unicode="&#xb6;" horiz-adv-x="1011" d="M698 1434h140v-1700h-140v1700zM379 635q-66 0 -121 33.5t-95 90t-63.5 129.5t-23.5 148q0 76 23.5 147.5t68.5 127t110.5 89.5t147.5 34h92v-1700h-139v901z" />
<glyph unicode="&#xb7;" horiz-adv-x="546" d="M155 606q0 55 32 87t85 32q55 0 88 -31.5t33 -87.5q0 -53 -33 -86t-88 -33q-53 0 -85 33t-32 86z" />
<glyph unicode="&#xb8;" horiz-adv-x="587" d="M303 -88q86 -16 124 -53t38 -101q0 -84 -67.5 -134t-182.5 -50q-23 0 -45.5 2t-46.5 6l14 101q12 -2 22.5 -3.5t47.5 -3.5q25 0 48.5 3.5t36.5 13.5t17 22.5t4 24.5q2 59 -176 76l99 184h116z" />
<glyph unicode="&#xb9;" horiz-adv-x="806" d="M147 903h218v520l14 74l-55 -57l-160 -97l-55 101l315 209h84v-750h194v-125h-555v125z" />
<glyph unicode="&#xba;" horiz-adv-x="815" d="M90 1110q0 92 24.5 157.5t66.5 108.5t100.5 62.5t126.5 19.5t126 -18.5t100 -59.5t66.5 -107.5t24.5 -162.5t-24.5 -162.5t-66.5 -107.5t-100.5 -59.5t-125.5 -18.5q-68 0 -126.5 18.5t-100.5 59.5t-66.5 107.5t-24.5 162.5zM242 1110q0 -123 44 -176t122 -53 q39 0 69.5 11t52 36.5t32.5 69.5t11 112t-11 112t-32.5 69.5t-52.5 36.5t-69 11q-78 0 -122 -48t-44 -181z" />
<glyph unicode="&#xbb;" horiz-adv-x="978" d="M526 549l-327 -467l-107 86l197 295l100 84l-100 74l-209 288l106 88zM899 549l-328 -471l-110 88l201 297l98 84l-98 74l-213 290l108 90z" />
<glyph unicode="&#xbc;" horiz-adv-x="1714" d="M1327 1460l106 -71l-997 -1414l-106 74zM1632 197h-170v-197h-137v197h-418v76l463 618h92v-573h170v-121zM1325 580l12 100h-4l-45 -94l-160 -215l-67 -64l102 11h162v262zM367 1219l14 73l-57 -57l-160 -96l-55 100l315 209h86v-875h-143v646z" />
<glyph unicode="&#xbd;" horiz-adv-x="1740" d="M1327 1460l106 -71l-997 -1414l-106 74zM1618 635q0 -63 -21.5 -122.5t-57 -117t-85 -114t-104.5 -113.5l-94 -65v-4l117 30h286v-129h-596v68q47 39 118 104.5t136.5 141t111.5 155.5t46 148q0 63 -41 95t-100 32q-55 0 -107.5 -19.5t-91.5 -44.5l-45 117 q53 37 123.5 57.5t144.5 20.5q129 0 194.5 -63.5t65.5 -176.5zM367 1219l14 73l-57 -57l-160 -96l-55 100l315 209h86v-875h-143v646z" />
<glyph unicode="&#xbe;" horiz-adv-x="1794" d="M1407 1460l106 -71l-997 -1414l-106 74zM1712 197h-170v-197h-137v197h-418v76l463 618h92v-573h170v-121zM1405 580l12 100h-4l-45 -94l-160 -215l-67 -64l102 11h162v262zM364 682q98 0 150.5 39t52.5 114q0 66 -47 107t-152 41h-112v47l198 237l70 56l-100 -13h-267 v123h525v-67l-211 -252l-52 -37v-4l48 6q113 -2 178 -67.5t65 -176.5q0 -125 -91 -200.5t-243 -75.5q-74 0 -127 12t-94 27l31 123q35 -16 80 -27.5t98 -11.5z" />
<glyph unicode="&#xbf;" horiz-adv-x="892" d="M586 662q2 -10 2 -23v-23q0 -86 -25.5 -151.5t-63.5 -119.5t-82 -101t-82 -95.5t-63.5 -102.5t-25.5 -124q0 -94 54 -153.5t181 -59.5q74 0 150 25.5t131 60.5l55 -127q-78 -47 -164 -74.5t-213 -27.5q-90 0 -158.5 25.5t-114.5 70.5t-68.5 105.5t-22.5 132.5 q0 92 27.5 160.5t69.5 125t90 105.5t90 103.5t70 117.5t28 150h135zM391 930q0 55 32 87t85 32q55 0 88 -32t33 -87q0 -53 -33 -86t-88 -33q-53 0 -85 33t-32 86z" />
<glyph unicode="&#xc0;" horiz-adv-x="1198" d="M856 397h-528l-144 -397h-168l543 1456h78l545 -1456h-178zM383 545h422l-160 436l-51 217h-2l-51 -221zM752 1540h-152l-323 199v43h233z" />
<glyph unicode="&#xc1;" horiz-adv-x="1198" d="M856 397h-528l-144 -397h-168l543 1456h78l545 -1456h-178zM383 545h422l-160 436l-51 217h-2l-51 -221zM678 1782h233v-43l-334 -199h-141z" />
<glyph unicode="&#xc2;" horiz-adv-x="1198" d="M856 397h-528l-144 -397h-168l543 1456h78l545 -1456h-178zM383 545h422l-160 436l-51 217h-2l-51 -221zM542 1782h123l260 -209v-43h-166l-123 100l-34 72l-39 -70l-131 -102h-162v45z" />
<glyph unicode="&#xc3;" horiz-adv-x="1198" d="M856 397h-528l-144 -397h-168l543 1456h78l545 -1456h-178zM383 545h422l-160 436l-51 217h-2l-51 -221zM277 1608q63 66 117.5 89t103.5 23q39 0 76 -10t70.5 -23.5t66.5 -23.5t64 -10q53 0 102 43l51 -88q-55 -51 -104 -70.5t-92 -19.5q-39 0 -74 10t-69 23.5 t-66.5 23.5t-65.5 10t-64.5 -13t-66.5 -48z" />
<glyph unicode="&#xc4;" horiz-adv-x="1198" d="M856 397h-528l-144 -397h-168l543 1456h78l545 -1456h-178zM383 545h422l-160 436l-51 217h-2l-51 -221zM295 1626q0 43 30.5 69.5t79.5 26.5q47 0 77 -26.5t30 -69.5q0 -41 -29.5 -67.5t-77.5 -26.5q-49 0 -79.5 26.5t-30.5 67.5zM688 1626q0 43 29.5 69.5t77.5 26.5 q49 0 79.5 -26.5t30.5 -69.5q0 -41 -30.5 -67.5t-79.5 -26.5q-47 0 -77 26.5t-30 67.5z" />
<glyph unicode="&#xc5;" horiz-adv-x="1198" d="M385 1573q0 76 51 125t164 49q102 0 159.5 -44t57.5 -130q0 -66 -41 -110t-121 -56l527 -1407h-178l-148 397h-528l-144 -397h-168l525 1407q-78 12 -117 56t-39 110zM383 545h422l-160 436l-51 217h-2l-51 -221zM510 1573q0 -35 21.5 -58.5t68.5 -23.5q45 0 68.5 22.5 t23.5 59.5q0 39 -22.5 62.5t-69.5 23.5q-45 0 -67.5 -23.5t-22.5 -62.5z" />
<glyph unicode="&#xc6;" horiz-adv-x="1732" d="M801 1229l-70 -211l-272 -469h350v680h-8zM809 406h-438l-230 -406h-186l850 1434h784v-152h-610v-469h559v-151h-559v-510h620v-152h-790v406z" />
<glyph unicode="&#xc7;" horiz-adv-x="1169" d="M1092 59q-53 -41 -131 -59t-170 -23l-35 -65q86 -16 124 -53t38 -101q0 -80 -66 -132t-184 -52q-23 0 -45.5 2t-47.5 6l19 80q12 -2 22 -2h21q45 0 70.5 8t39 19.5t16.5 26t3 26.5q0 57 -176 76l86 164q-119 8 -221.5 56t-178 138t-118.5 225.5t-43 317.5q0 201 54 341 t143 229t200 130t225 41q123 0 201 -13t133 -36l-41 -149q-98 47 -280 47q-84 0 -166 -31t-146.5 -100.5t-103.5 -182t-39 -276.5q0 -147 37 -258t101.5 -184.5t151.5 -110.5t189 -37q92 0 161 18.5t116 47.5z" />
<glyph unicode="&#xc8;" horiz-adv-x="1097" d="M174 1434h780v-152h-610v-469h559v-151h-559v-510h621v-152h-791v1434zM668 1540h-152l-323 199v43h233z" />
<glyph unicode="&#xc9;" horiz-adv-x="1097" d="M174 1434h780v-152h-610v-469h559v-151h-559v-510h621v-152h-791v1434zM676 1782h233v-43l-334 -199h-141z" />
<glyph unicode="&#xca;" horiz-adv-x="1097" d="M174 1434h780v-152h-610v-469h559v-151h-559v-510h621v-152h-791v1434zM495 1782h123l260 -209v-43h-166l-123 100l-34 72l-39 -70l-131 -102h-162v45z" />
<glyph unicode="&#xcb;" horiz-adv-x="1097" d="M174 1434h780v-152h-610v-469h559v-151h-559v-510h621v-152h-791v1434zM246 1626q0 43 30.5 69.5t79.5 26.5q47 0 77 -26.5t30 -69.5q0 -41 -29.5 -67.5t-77.5 -26.5q-49 0 -79.5 26.5t-30.5 67.5zM639 1626q0 43 29.5 69.5t77.5 26.5q49 0 79.5 -26.5t30.5 -69.5 q0 -41 -30.5 -67.5t-79.5 -26.5q-47 0 -77 26.5t-30 67.5z" />
<glyph unicode="&#xcc;" horiz-adv-x="595" d="M213 1434h170v-1434h-170v1434zM399 1540h-152l-323 199v43h233z" />
<glyph unicode="&#xcd;" horiz-adv-x="595" d="M213 1434h170v-1434h-170v1434zM369 1782h233v-43l-334 -199h-141z" />
<glyph unicode="&#xce;" horiz-adv-x="595" d="M213 1434h170v-1434h-170v1434zM241 1782h123l260 -209v-43h-166l-123 100l-34 72l-39 -70l-131 -102h-162v45z" />
<glyph unicode="&#xcf;" horiz-adv-x="595" d="M213 1434h170v-1434h-170v1434zM-4 1626q0 43 30.5 69.5t79.5 26.5q47 0 77 -26.5t30 -69.5q0 -41 -29.5 -67.5t-77.5 -26.5q-49 0 -79.5 26.5t-30.5 67.5zM389 1626q0 43 29.5 69.5t77.5 26.5q49 0 79.5 -26.5t30.5 -69.5q0 -41 -30.5 -67.5t-79.5 -26.5q-47 0 -77 26.5 t-30 67.5z" />
<glyph unicode="&#xd0;" horiz-adv-x="1347" d="M-2 803h184v631q39 6 87 9t101 4l102 2q50 1 93 1q172 0 298 -53.5t208 -148.5t122 -228t40 -293q0 -145 -38 -279.5t-120 -238t-213 -165.5t-317 -62q-33 0 -85 1t-107.5 4t-102.5 5t-68 6v682h-184v123zM569 1298h-58q-32 0 -62.5 -2t-56 -4t-40.5 -4v-485h301v-123 h-301v-539q10 -2 39 -3l60 -2l59 -2q29 -1 39 -1q143 0 240.5 49t156 132t83 190.5t24.5 222.5q0 100 -22.5 201.5t-78 183.5t-149 134t-234.5 52z" />
<glyph unicode="&#xd1;" horiz-adv-x="1378" d="M432 938l-110 207h-9l21 -207v-938h-160v1456h90l686 -956l107 -197h10l-23 197v934h160v-1457h-90zM367 1608q63 66 117.5 89t103.5 23q39 0 76 -10t70.5 -23.5t66.5 -23.5t64 -10q53 0 102 43l51 -88q-55 -51 -104 -70.5t-92 -19.5q-39 0 -74 10t-69 23.5t-66.5 23.5 t-65.5 10t-64.5 -13t-66.5 -48z" />
<glyph unicode="&#xd2;" horiz-adv-x="1400" d="M115 717q0 358 151.5 549.5t431.5 191.5q152 0 262.5 -53t183.5 -150.5t107.5 -233.5t34.5 -304q0 -358 -152.5 -550t-435.5 -192q-150 0 -259 53.5t-182 150.5t-107.5 233.5t-34.5 304.5zM295 717q0 -119 23.5 -225.5t72.5 -187.5t126 -129t181 -48q190 0 299 144.5 t109 445.5q0 117 -23.5 224.5t-74 188t-127 129t-183.5 48.5q-188 0 -295.5 -144.5t-107.5 -445.5zM840 1540h-152l-323 199v43h233z" />
<glyph unicode="&#xd3;" horiz-adv-x="1400" d="M115 717q0 358 151.5 549.5t431.5 191.5q152 0 262.5 -53t183.5 -150.5t107.5 -233.5t34.5 -304q0 -358 -152.5 -550t-435.5 -192q-150 0 -259 53.5t-182 150.5t-107.5 233.5t-34.5 304.5zM295 717q0 -119 23.5 -225.5t72.5 -187.5t126 -129t181 -48q190 0 299 144.5 t109 445.5q0 117 -23.5 224.5t-74 188t-127 129t-183.5 48.5q-188 0 -295.5 -144.5t-107.5 -445.5zM850 1782h233v-43l-334 -199h-141z" />
<glyph unicode="&#xd4;" horiz-adv-x="1400" d="M115 717q0 358 151.5 549.5t431.5 191.5q152 0 262.5 -53t183.5 -150.5t107.5 -233.5t34.5 -304q0 -358 -152.5 -550t-435.5 -192q-150 0 -259 53.5t-182 150.5t-107.5 233.5t-34.5 304.5zM295 717q0 -119 23.5 -225.5t72.5 -187.5t126 -129t181 -48q190 0 299 144.5 t109 445.5q0 117 -23.5 224.5t-74 188t-127 129t-183.5 48.5q-188 0 -295.5 -144.5t-107.5 -445.5zM639 1782h123l260 -209v-43h-166l-123 100l-34 72l-39 -70l-131 -102h-162v45z" />
<glyph unicode="&#xd5;" horiz-adv-x="1400" d="M115 717q0 358 151.5 549.5t431.5 191.5q152 0 262.5 -53t183.5 -150.5t107.5 -233.5t34.5 -304q0 -358 -152.5 -550t-435.5 -192q-150 0 -259 53.5t-182 150.5t-107.5 233.5t-34.5 304.5zM295 717q0 -119 23.5 -225.5t72.5 -187.5t126 -129t181 -48q190 0 299 144.5 t109 445.5q0 117 -23.5 224.5t-74 188t-127 129t-183.5 48.5q-188 0 -295.5 -144.5t-107.5 -445.5zM373 1608q63 66 117.5 89t103.5 23q39 0 76 -10t70.5 -23.5t66.5 -23.5t64 -10q53 0 102 43l51 -88q-55 -51 -104 -70.5t-92 -19.5q-39 0 -74 10t-69 23.5t-66.5 23.5 t-65.5 10t-64.5 -13t-66.5 -48z" />
<glyph unicode="&#xd6;" horiz-adv-x="1400" d="M115 717q0 358 151.5 549.5t431.5 191.5q152 0 262.5 -53t183.5 -150.5t107.5 -233.5t34.5 -304q0 -358 -152.5 -550t-435.5 -192q-150 0 -259 53.5t-182 150.5t-107.5 233.5t-34.5 304.5zM295 717q0 -119 23.5 -225.5t72.5 -187.5t126 -129t181 -48q190 0 299 144.5 t109 445.5q0 117 -23.5 224.5t-74 188t-127 129t-183.5 48.5q-188 0 -295.5 -144.5t-107.5 -445.5zM389 1626q0 43 30.5 69.5t79.5 26.5q47 0 77 -26.5t30 -69.5q0 -41 -29.5 -67.5t-77.5 -26.5q-49 0 -79.5 26.5t-30.5 67.5zM782 1626q0 43 29.5 69.5t77.5 26.5 q49 0 79.5 -26.5t30.5 -69.5q0 -41 -30.5 -67.5t-79.5 -26.5q-47 0 -77 26.5t-30 67.5z" />
<glyph unicode="&#xd7;" horiz-adv-x="1034" d="M260 1059l258 -260l260 260l105 -109l-258 -258l258 -260l-105 -106l-260 262l-260 -262l-106 104l262 264l-258 256z" />
<glyph unicode="&#xd8;" horiz-adv-x="1400" d="M250 186q-70 98 -102.5 231.5t-32.5 299.5q0 358 151.5 549.5t431.5 191.5q117 0 207 -30.5t160 -90.5l86 123l106 -71l-104 -148q68 -98 100.5 -230t32.5 -294q0 -358 -152.5 -550t-435.5 -192q-219 0 -358 115l-80 -115l-106 74zM295 717q0 -104 17.5 -196.5 t54.5 -170.5l594 842q-47 53 -112 84t-151 31q-188 0 -295.5 -144.5t-107.5 -445.5zM1106 717q0 98 -17.5 190t-52.5 168l-594 -842q47 -51 110.5 -78.5t145.5 -27.5q190 0 299 144.5t109 445.5z" />
<glyph unicode="&#xd9;" horiz-adv-x="1335" d="M997 1434h164v-957q0 -129 -33.5 -223t-96 -154.5t-150.5 -89t-195 -28.5q-254 0 -383 114.5t-129 347.5v990h170v-910q0 -109 21.5 -183.5t64.5 -120.5t107.5 -66.5t150.5 -20.5q166 0 237.5 91t71.5 300v910zM834 1540h-152l-323 199v43h233z" />
<glyph unicode="&#xda;" horiz-adv-x="1335" d="M997 1434h164v-957q0 -129 -33.5 -223t-96 -154.5t-150.5 -89t-195 -28.5q-254 0 -383 114.5t-129 347.5v990h170v-910q0 -109 21.5 -183.5t64.5 -120.5t107.5 -66.5t150.5 -20.5q166 0 237.5 91t71.5 300v910zM799 1782h233v-43l-334 -199h-141z" />
<glyph unicode="&#xdb;" horiz-adv-x="1335" d="M997 1434h164v-957q0 -129 -33.5 -223t-96 -154.5t-150.5 -89t-195 -28.5q-254 0 -383 114.5t-129 347.5v990h170v-910q0 -109 21.5 -183.5t64.5 -120.5t107.5 -66.5t150.5 -20.5q166 0 237.5 91t71.5 300v910zM616 1782h123l260 -209v-43h-166l-123 100l-34 72l-39 -70 l-131 -102h-162v45z" />
<glyph unicode="&#xdc;" horiz-adv-x="1335" d="M997 1434h164v-957q0 -129 -33.5 -223t-96 -154.5t-150.5 -89t-195 -28.5q-254 0 -383 114.5t-129 347.5v990h170v-910q0 -109 21.5 -183.5t64.5 -120.5t107.5 -66.5t150.5 -20.5q166 0 237.5 91t71.5 300v910zM365 1626q0 43 30.5 69.5t79.5 26.5q47 0 77 -26.5 t30 -69.5q0 -41 -29.5 -67.5t-77.5 -26.5q-49 0 -79.5 26.5t-30.5 67.5zM758 1626q0 43 29.5 69.5t77.5 26.5q49 0 79.5 -26.5t30.5 -69.5q0 -41 -30.5 -67.5t-79.5 -26.5q-47 0 -77 26.5t-30 67.5z" />
<glyph unicode="&#xdd;" horiz-adv-x="1142" d="M489 569l-473 865h199l336 -627l35 -125h2l37 129l321 623h182l-469 -863v-571h-170v569zM727 1782h233v-43l-334 -199h-141z" />
<glyph unicode="&#xde;" horiz-adv-x="1144" d="M174 1638h170v-358q86 6 176 6q94 0 191.5 -18.5t177.5 -67.5t130 -135t50 -219q0 -131 -47 -221t-125 -146.5t-178.5 -81t-206.5 -24.5h-34q-24 0 -49.5 1t-50 3t-34.5 4v-381h-170v1638zM524 1139q-53 0 -102 -2t-78 -11v-594q10 -4 33 -5l47 -2q25 -1 47 -1h33 q70 0 138.5 13.5t123.5 48.5t89 98.5t34 161.5q0 84 -32 140t-84 90t-117.5 48.5t-131.5 14.5z" />
<glyph unicode="&#xdf;" horiz-adv-x="1212" d="M786 1145q0 35 -19 63.5t-50 50t-68 33t-71 11.5q-57 0 -97.5 -14.5t-66 -47.5t-35.5 -87t-10 -134v-1020h-164v881h-160v143h160v47q0 199 97 287t269 88q84 0 154 -21.5t120 -61.5t77.5 -94.5t27.5 -121.5q0 -78 -39 -125t-85 -84t-85 -72t-39 -86q0 -45 31 -71.5 t78 -46.5l100 -42q53 -22 100.5 -57t78 -91t30.5 -146q0 -66 -24.5 -128.5t-70.5 -111.5t-115.5 -80t-157.5 -31q-47 0 -83 3.5t-66 10.5t-56.5 17t-52.5 27l47 137q25 -12 43 -22.5t39.5 -16.5t48 -9t65.5 -3q43 0 83 15.5t71 42t48 62t17 80.5q0 61 -30.5 97.5t-76.5 61 t-100.5 44t-100.5 49t-76.5 75.5t-30.5 124q0 80 37.5 128t86 86t85 73t36.5 88z" />
<glyph unicode="&#xe0;" horiz-adv-x="1015" d="M141 948q78 47 181.5 69.5t216.5 22.5q106 0 170.5 -28.5t98.5 -74.5t45 -101.5t11 -110.5q0 -123 -6 -239.5t-6 -221.5q0 -76 6 -143.5t23 -124.5h-121l-43 143h-10q-18 -29 -46 -56.5t-67 -49t-90 -35.5t-117 -14t-122 20.5t-97 58t-64.5 91t-23.5 120.5q0 90 37 150.5 t103.5 96.5t159.5 51.5t206 15.5h56q28 0 56 -4q6 61 7 110q0 113 -45.5 158t-163.5 45q-35 0 -75 -5t-82 -14.5t-80 -22.5t-66 -30zM432 127q57 0 102.5 15.5t78 39t54 52t31.5 55.5v170q-29 2 -58.5 3t-57.5 1q-63 0 -124 -7t-107 -26.5t-73.5 -53.5t-27.5 -85 q0 -72 51 -118t131 -46zM625 1169h-93l-235 263v43h194z" />
<glyph unicode="&#xe1;" horiz-adv-x="1015" d="M141 948q78 47 181.5 69.5t216.5 22.5q106 0 170.5 -28.5t98.5 -74.5t45 -101.5t11 -110.5q0 -123 -6 -239.5t-6 -221.5q0 -76 6 -143.5t23 -124.5h-121l-43 143h-10q-18 -29 -46 -56.5t-67 -49t-90 -35.5t-117 -14t-122 20.5t-97 58t-64.5 91t-23.5 120.5q0 90 37 150.5 t103.5 96.5t159.5 51.5t206 15.5h56q28 0 56 -4q6 61 7 110q0 113 -45.5 158t-163.5 45q-35 0 -75 -5t-82 -14.5t-80 -22.5t-66 -30zM432 127q57 0 102.5 15.5t78 39t54 52t31.5 55.5v170q-29 2 -58.5 3t-57.5 1q-63 0 -124 -7t-107 -26.5t-73.5 -53.5t-27.5 -85 q0 -72 51 -118t131 -46zM488 1475h182v-43l-207 -263h-96z" />
<glyph unicode="&#xe2;" horiz-adv-x="1015" d="M141 948q78 47 181.5 69.5t216.5 22.5q106 0 170.5 -28.5t98.5 -74.5t45 -101.5t11 -110.5q0 -123 -6 -239.5t-6 -221.5q0 -76 6 -143.5t23 -124.5h-121l-43 143h-10q-18 -29 -46 -56.5t-67 -49t-90 -35.5t-117 -14t-122 20.5t-97 58t-64.5 91t-23.5 120.5q0 90 37 150.5 t103.5 96.5t159.5 51.5t206 15.5h56q28 0 56 -4q6 61 7 110q0 113 -45.5 158t-163.5 45q-35 0 -75 -5t-82 -14.5t-80 -22.5t-66 -30zM432 127q57 0 102.5 15.5t78 39t54 52t31.5 55.5v170q-29 2 -58.5 3t-57.5 1q-63 0 -124 -7t-107 -26.5t-73.5 -53.5t-27.5 -85 q0 -72 51 -118t131 -46zM490 1499h65l228 -373h-148l-80 136l-43 118l-45 -118l-92 -136h-137z" />
<glyph unicode="&#xe3;" horiz-adv-x="1015" d="M141 948q78 47 181.5 69.5t216.5 22.5q106 0 170.5 -28.5t98.5 -74.5t45 -101.5t11 -110.5q0 -123 -6 -239.5t-6 -221.5q0 -76 6 -143.5t23 -124.5h-121l-43 143h-10q-18 -29 -46 -56.5t-67 -49t-90 -35.5t-117 -14t-122 20.5t-97 58t-64.5 91t-23.5 120.5q0 90 37 150.5 t103.5 96.5t159.5 51.5t206 15.5h56q28 0 56 -4q6 61 7 110q0 113 -45.5 158t-163.5 45q-35 0 -75 -5t-82 -14.5t-80 -22.5t-66 -30zM432 127q57 0 102.5 15.5t78 39t54 52t31.5 55.5v170q-29 2 -58.5 3t-57.5 1q-63 0 -124 -7t-107 -26.5t-73.5 -53.5t-27.5 -85 q0 -72 51 -118t131 -46zM223 1343q59 68 108.5 93.5t90.5 25.5q35 0 64.5 -13t57 -28.5t53 -28t54.5 -12.5q45 0 94 50l49 -89q-53 -59 -97 -80.5t-81 -21.5q-33 0 -61.5 12.5t-56 27.5t-55.5 28.5t-56 13.5q-27 0 -54.5 -14.5t-62.5 -49.5z" />
<glyph unicode="&#xe4;" horiz-adv-x="1015" d="M141 948q78 47 181.5 69.5t216.5 22.5q106 0 170.5 -28.5t98.5 -74.5t45 -101.5t11 -110.5q0 -123 -6 -239.5t-6 -221.5q0 -76 6 -143.5t23 -124.5h-121l-43 143h-10q-18 -29 -46 -56.5t-67 -49t-90 -35.5t-117 -14t-122 20.5t-97 58t-64.5 91t-23.5 120.5q0 90 37 150.5 t103.5 96.5t159.5 51.5t206 15.5h56q28 0 56 -4q6 61 7 110q0 113 -45.5 158t-163.5 45q-35 0 -75 -5t-82 -14.5t-80 -22.5t-66 -30zM432 127q57 0 102.5 15.5t78 39t54 52t31.5 55.5v170q-29 2 -58.5 3t-57.5 1q-63 0 -124 -7t-107 -26.5t-73.5 -53.5t-27.5 -85 q0 -72 51 -118t131 -46zM215 1337q0 47 27.5 76t72.5 29t73 -29t28 -76q0 -43 -28 -71.5t-73 -28.5t-72.5 28.5t-27.5 71.5zM608 1337q0 47 27.5 76t72.5 29q47 0 75 -29t28 -76q0 -43 -27.5 -71.5t-75.5 -28.5q-45 0 -72.5 28.5t-27.5 71.5z" />
<glyph unicode="&#xe5;" horiz-adv-x="1015" d="M141 948q78 47 181.5 69.5t216.5 22.5q106 0 170.5 -28.5t98.5 -74.5t45 -101.5t11 -110.5q0 -123 -6 -239.5t-6 -221.5q0 -76 6 -143.5t23 -124.5h-121l-43 143h-10q-18 -29 -46 -56.5t-67 -49t-90 -35.5t-117 -14t-122 20.5t-97 58t-64.5 91t-23.5 120.5q0 90 37 150.5 t103.5 96.5t159.5 51.5t206 15.5h56q28 0 56 -4q6 61 7 110q0 113 -45.5 158t-163.5 45q-35 0 -75 -5t-82 -14.5t-80 -22.5t-66 -30zM432 127q57 0 102.5 15.5t78 39t54 52t31.5 55.5v170q-29 2 -58.5 3t-57.5 1q-63 0 -124 -7t-107 -26.5t-73.5 -53.5t-27.5 -85 q0 -72 51 -118t131 -46zM311 1317q0 86 54 136t145 50q86 0 143 -45t57 -141q0 -80 -57 -132t-143 -52t-142.5 48t-56.5 136zM421 1317q0 -41 27 -63.5t62 -22.5q39 0 64.5 20.5t25.5 65.5t-28 66.5t-62 21.5q-35 0 -62 -20.5t-27 -67.5z" />
<glyph unicode="&#xe6;" horiz-adv-x="1630" d="M432 127q57 0 102.5 15.5t78 39t54 52t31.5 55.5v170q-29 2 -58.5 3t-57.5 1q-63 0 -124 -7t-107 -26.5t-73.5 -53.5t-27.5 -85q0 -72 51 -118t131 -46zM752 172q-27 -37 -62 -70.5t-79 -59.5t-100 -42t-124 -16q-66 0 -122 20.5t-97 58t-64.5 91t-23.5 120.5 q0 90 37 150.5t103.5 96.5t159.5 51.5t206 15.5h56q28 0 56 -4q2 31 4.5 58.5t2.5 51.5q0 113 -45.5 159t-163.5 44q-35 0 -75 -5t-82 -14.5t-80 -22.5t-66 -30l-52 123q78 47 181.5 69.5t216.5 22.5q215 0 278 -133q53 74 143.5 108t180.5 34q70 0 139.5 -15.5t124.5 -59.5 t90 -124t35 -209q0 -33 -3 -68.5t-7 -76.5h-662q0 -178 75 -277.5t255 -99.5q72 0 140.5 25.5t105.5 56.5l61 -119q-61 -49 -154.5 -78t-197.5 -29q-125 0 -226.5 51.5t-150.5 145.5h-14zM1143 905q-121 0 -195 -63.5t-86 -216.5h508v24q0 139 -62.5 197.5t-164.5 58.5z" />
<glyph unicode="&#xe7;" horiz-adv-x="923" d="M856 68q-100 -72 -248 -88l-37 -68q86 -16 124 -53t38 -101q0 -80 -65.5 -132t-184.5 -52q-23 0 -45 2t-47 6l19 80q12 -2 22 -2h21q45 0 70.5 8t38.5 19.5t16.5 26t3.5 26.5q0 57 -176 76l86 161q-106 6 -180 47.5t-121.5 111t-69 164.5t-21.5 212q0 260 115 398.5 t330 138.5q98 0 166.5 -15.5t124.5 -44.5l-48 -141q-47 27 -104 42t-123 15q-291 0 -291 -393q0 -78 15.5 -148.5t51.5 -125t94 -86t144 -31.5q74 0 132.5 21.5t95.5 50.5z" />
<glyph unicode="&#xe8;" horiz-adv-x="1040" d="M905 82q-61 -49 -154.5 -78t-197.5 -29q-117 0 -203 38t-141 109t-82 169t-27 221q0 262 117 399.5t334 137.5q70 0 139.5 -15.5t124.5 -58.5t90 -122t35 -208q0 -68 -12 -149h-658q0 -90 18.5 -160t57.5 -118t101.5 -73.5t152.5 -25.5q70 0 139.5 24.5t104.5 57.5z M553 905q-121 0 -193.5 -63.5t-87.5 -216.5h508q0 156 -59 218t-168 62zM676 1169h-93l-235 263v43h194z" />
<glyph unicode="&#xe9;" horiz-adv-x="1040" d="M905 82q-61 -49 -154.5 -78t-197.5 -29q-117 0 -203 38t-141 109t-82 169t-27 221q0 262 117 399.5t334 137.5q70 0 139.5 -15.5t124.5 -58.5t90 -122t35 -208q0 -68 -12 -149h-658q0 -90 18.5 -160t57.5 -118t101.5 -73.5t152.5 -25.5q70 0 139.5 24.5t104.5 57.5z M553 905q-121 0 -193.5 -63.5t-87.5 -216.5h508q0 156 -59 218t-168 62zM596 1475h182v-43l-207 -263h-96z" />
<glyph unicode="&#xea;" horiz-adv-x="1040" d="M905 82q-61 -49 -154.5 -78t-197.5 -29q-117 0 -203 38t-141 109t-82 169t-27 221q0 262 117 399.5t334 137.5q70 0 139.5 -15.5t124.5 -58.5t90 -122t35 -208q0 -68 -12 -149h-658q0 -90 18.5 -160t57.5 -118t101.5 -73.5t152.5 -25.5q70 0 139.5 24.5t104.5 57.5z M553 905q-121 0 -193.5 -63.5t-87.5 -216.5h508q0 156 -59 218t-168 62zM502 1499h65l228 -373h-148l-80 136l-43 118l-45 -118l-92 -136h-137z" />
<glyph unicode="&#xeb;" horiz-adv-x="1040" d="M905 82q-61 -49 -154.5 -78t-197.5 -29q-117 0 -203 38t-141 109t-82 169t-27 221q0 262 117 399.5t334 137.5q70 0 139.5 -15.5t124.5 -58.5t90 -122t35 -208q0 -68 -12 -149h-658q0 -90 18.5 -160t57.5 -118t101.5 -73.5t152.5 -25.5q70 0 139.5 24.5t104.5 57.5z M553 905q-121 0 -193.5 -63.5t-87.5 -216.5h508q0 156 -59 218t-168 62zM244 1337q0 47 27.5 76t72.5 29t73 -29t28 -76q0 -43 -28 -71.5t-73 -28.5t-72.5 28.5t-27.5 71.5zM637 1337q0 47 27.5 76t72.5 29q47 0 75 -29t28 -76q0 -43 -27.5 -71.5t-75.5 -28.5 q-45 0 -72.5 28.5t-27.5 71.5z" />
<glyph unicode="&#xec;" horiz-adv-x="548" d="M193 1024h163v-1024h-163v1024zM353 1169h-93l-235 263v43h194z" />
<glyph unicode="&#xed;" horiz-adv-x="548" d="M193 1024h163v-1024h-163v1024zM316 1475h182v-43l-207 -263h-96z" />
<glyph unicode="&#xee;" horiz-adv-x="548" d="M193 1024h163v-1024h-163v1024zM248 1499h65l228 -373h-148l-80 136l-43 118l-45 -118l-92 -136h-137z" />
<glyph unicode="&#xef;" horiz-adv-x="548" d="M193 1024h163v-1024h-163v1024zM-24 1337q0 47 27.5 76t72.5 29t73 -29t28 -76q0 -43 -28 -71.5t-73 -28.5t-72.5 28.5t-27.5 71.5zM369 1337q0 47 27.5 76t72.5 29q47 0 75 -29t28 -76q0 -43 -27.5 -71.5t-75.5 -28.5q-45 0 -72.5 28.5t-27.5 71.5z" />
<glyph unicode="&#xf0;" horiz-adv-x="1148" d="M451 1221l116 63q-78 47 -155 66l71 110q37 -14 94.5 -38.5t118.5 -67.5l140 76l53 -93l-103 -55q49 -47 94.5 -109.5t80 -145.5t55 -187.5t20.5 -235.5q0 -166 -36.5 -284.5t-99 -195.5t-145.5 -113t-177 -36q-125 0 -213.5 43t-143.5 117t-80.5 171t-25.5 208 q0 106 29.5 202.5t88 169t143.5 115.5t197 43q92 0 163 -28.5t100 -65.5q-23 76 -69 143.5t-105 120.5l-156 -84zM283 512q0 -100 22.5 -174t62.5 -123t96 -72.5t122 -23.5q61 0 113.5 26.5t91 84t61 147.5t22.5 217q0 20 -1 46l-2 51q-1 26 -4 49.5t-7 39.5 q-16 29 -46 51.5t-66.5 38t-77.5 22.5t-80 7q-80 0 -138.5 -29.5t-96.5 -82t-55 -123t-17 -152.5z" />
<glyph unicode="&#xf1;" horiz-adv-x="1120" d="M815 0v584q0 160 -46 240.5t-169 80.5q-109 0 -179.5 -58.5t-98.5 -146.5v-700h-164v1024h114l31 -125h8q49 66 132 108t198 42q84 0 147.5 -19.5t105.5 -69t63.5 -132.5t21.5 -210v-618h-164zM275 1343q59 68 108.5 93.5t90.5 25.5q35 0 64.5 -13t57 -28.5t53 -28 t54.5 -12.5q45 0 94 50l49 -89q-53 -59 -97 -80.5t-81 -21.5q-33 0 -61.5 12.5t-56 27.5t-55.5 28.5t-56 13.5q-27 0 -54.5 -14.5t-62.5 -49.5z" />
<glyph unicode="&#xf2;" horiz-adv-x="1097" d="M100 512q0 260 116 398.5t333 138.5q115 0 200 -38t140 -109t81.5 -170t26.5 -220q0 -260 -115.5 -398.5t-332.5 -138.5q-115 0 -200 38t-140 109t-82 170t-27 220zM270 512q0 -78 15.5 -149.5t48.5 -125t86 -86t129 -32.5h3q276 0 275 393q0 80 -15 151.5t-48 125 t-86 85t-129 31.5h-3q-276 0 -276 -393zM650 1169h-93l-235 263v43h194z" />
<glyph unicode="&#xf3;" horiz-adv-x="1097" d="M100 512q0 260 116 398.5t333 138.5q115 0 200 -38t140 -109t81.5 -170t26.5 -220q0 -260 -115.5 -398.5t-332.5 -138.5q-115 0 -200 38t-140 109t-82 170t-27 220zM270 512q0 -78 15.5 -149.5t48.5 -125t86 -86t129 -32.5h3q276 0 275 393q0 80 -15 151.5t-48 125 t-86 85t-129 31.5h-3q-276 0 -276 -393zM586 1475h182v-43l-207 -263h-96z" />
<glyph unicode="&#xf4;" horiz-adv-x="1097" d="M100 512q0 260 116 398.5t333 138.5q115 0 200 -38t140 -109t81.5 -170t26.5 -220q0 -260 -115.5 -398.5t-332.5 -138.5q-115 0 -200 38t-140 109t-82 170t-27 220zM270 512q0 -78 15.5 -149.5t48.5 -125t86 -86t129 -32.5h3q276 0 275 393q0 80 -15 151.5t-48 125 t-86 85t-129 31.5h-3q-276 0 -276 -393zM529 1499h65l228 -373h-148l-80 136l-43 118l-45 -118l-92 -136h-137z" />
<glyph unicode="&#xf5;" horiz-adv-x="1097" d="M100 512q0 260 116 398.5t333 138.5q115 0 200 -38t140 -109t81.5 -170t26.5 -220q0 -260 -115.5 -398.5t-332.5 -138.5q-115 0 -200 38t-140 109t-82 170t-27 220zM270 512q0 -78 15.5 -149.5t48.5 -125t86 -86t129 -32.5h3q276 0 275 393q0 80 -15 151.5t-48 125 t-86 85t-129 31.5h-3q-276 0 -276 -393zM264 1343q59 68 108.5 93.5t90.5 25.5q35 0 64.5 -13t57 -28.5t53 -28t54.5 -12.5q45 0 94 50l49 -89q-53 -59 -97 -80.5t-81 -21.5q-33 0 -61.5 12.5t-56 27.5t-55.5 28.5t-56 13.5q-27 0 -54.5 -14.5t-62.5 -49.5z" />
<glyph unicode="&#xf6;" horiz-adv-x="1097" d="M100 512q0 260 116 398.5t333 138.5q115 0 200 -38t140 -109t81.5 -170t26.5 -220q0 -260 -115.5 -398.5t-332.5 -138.5q-115 0 -200 38t-140 109t-82 170t-27 220zM270 512q0 -78 15.5 -149.5t48.5 -125t86 -86t129 -32.5h3q276 0 275 393q0 80 -15 151.5t-48 125 t-86 85t-129 31.5h-3q-276 0 -276 -393zM254 1337q0 47 27.5 76t72.5 29t73 -29t28 -76q0 -43 -28 -71.5t-73 -28.5t-72.5 28.5t-27.5 71.5zM647 1337q0 47 27.5 76t72.5 29q47 0 75 -29t28 -76q0 -43 -27.5 -71.5t-75.5 -28.5q-45 0 -72.5 28.5t-27.5 71.5z" />
<glyph unicode="&#xf7;" horiz-adv-x="1034" d="M82 766h868v-148h-868v148zM397 1075q0 55 32 87t85 32q55 0 88 -32t33 -87q0 -53 -33 -86t-88 -33q-53 0 -85 33t-32 86zM397 307q0 55 32 87t85 32q55 0 88 -32t33 -87q0 -53 -33 -86t-88 -33q-53 0 -85 33t-32 86z" />
<glyph unicode="&#xf8;" horiz-adv-x="1097" d="M100 512q0 260 116 398.5t333 138.5q150 0 250 -66l53 72l102 -76l-59 -86q53 -70 77.5 -166t24.5 -215q0 -260 -115.5 -398.5t-332.5 -138.5q-160 0 -262 72l-56 -76l-106 78l68 94q-47 70 -70 163t-23 206zM827 512q0 66 -10 126t-33 110l-407 -568q33 -27 75 -44 t97 -17q278 -2 278 393zM270 512q0 -61 9.5 -118.5t27.5 -104.5l404 561q-31 25 -71 40t-91 15q-279 2 -279 -393z" />
<glyph unicode="&#xf9;" horiz-adv-x="1103" d="M305 1024v-584q0 -80 9.5 -140t32 -100t61 -60.5t98.5 -20.5q55 0 98 17.5t77 48t59.5 70.5t41.5 85v684h164v-733q0 -74 5 -153t18 -138h-113l-41 162h-10q-47 -80 -127 -133.5t-203 -53.5q-82 0 -144.5 19.5t-104.5 69t-63.5 132.5t-21.5 210v618h164zM631 1169h-93 l-235 263v43h194z" />
<glyph unicode="&#xfa;" horiz-adv-x="1103" d="M305 1024v-584q0 -80 9.5 -140t32 -100t61 -60.5t98.5 -20.5q55 0 98 17.5t77 48t59.5 70.5t41.5 85v684h164v-733q0 -74 5 -153t18 -138h-113l-41 162h-10q-47 -80 -127 -133.5t-203 -53.5q-82 0 -144.5 19.5t-104.5 69t-63.5 132.5t-21.5 210v618h164zM584 1475h182 v-43l-207 -263h-96z" />
<glyph unicode="&#xfb;" horiz-adv-x="1103" d="M305 1024v-584q0 -80 9.5 -140t32 -100t61 -60.5t98.5 -20.5q55 0 98 17.5t77 48t59.5 70.5t41.5 85v684h164v-733q0 -74 5 -153t18 -138h-113l-41 162h-10q-47 -80 -127 -133.5t-203 -53.5q-82 0 -144.5 19.5t-104.5 69t-63.5 132.5t-21.5 210v618h164zM533 1499h65 l228 -373h-148l-80 136l-43 118l-45 -118l-92 -136h-137z" />
<glyph unicode="&#xfc;" horiz-adv-x="1103" d="M305 1024v-584q0 -80 9.5 -140t32 -100t61 -60.5t98.5 -20.5q55 0 98 17.5t77 48t59.5 70.5t41.5 85v684h164v-733q0 -74 5 -153t18 -138h-113l-41 162h-10q-47 -80 -127 -133.5t-203 -53.5q-82 0 -144.5 19.5t-104.5 69t-63.5 132.5t-21.5 210v618h164zM256 1337 q0 47 27.5 76t72.5 29t73 -29t28 -76q0 -43 -28 -71.5t-73 -28.5t-72.5 28.5t-27.5 71.5zM649 1337q0 47 27.5 76t72.5 29q47 0 75 -29t28 -76q0 -43 -27.5 -71.5t-75.5 -28.5q-45 0 -72.5 28.5t-27.5 71.5z" />
<glyph unicode="&#xfd;" horiz-adv-x="954" d="M459 360l57 -196h10l45 198l199 662h166l-303 -920l-69 -194q-34 -94 -74.5 -168t-92 -118t-118.5 -44q-74 0 -121 21l28 141q27 -10 52 -10q57 0 110 60.5t88 207.5l-411 1024h188zM568 1475h182v-43l-207 -263h-96z" />
<glyph unicode="&#xfe;" horiz-adv-x="1107" d="M158 1434h164v-512h8q41 59 108.5 93t163.5 34q205 0 305.5 -121t100.5 -396q0 -129 -34 -232t-95.5 -175t-148.5 -111t-193 -39q-76 0 -120 9.5t-95 31.5v-426h-164v1844zM571 905q-201 2 -249 -219v-510q37 -29 84 -43t124 -14q141 0 224.5 105.5t83.5 310.5 q0 84 -14.5 152.5t-46.5 116.5t-82 74.5t-124 26.5z" />
<glyph unicode="&#xff;" horiz-adv-x="954" d="M459 360l57 -196h10l45 198l199 662h166l-303 -920l-69 -194q-34 -94 -74.5 -168t-92 -118t-118.5 -44q-74 0 -121 21l28 141q27 -10 52 -10q57 0 110 60.5t88 207.5l-411 1024h188zM182 1337q0 47 27.5 76t72.5 29t73 -29t28 -76q0 -43 -28 -71.5t-73 -28.5t-72.5 28.5 t-27.5 71.5zM575 1337q0 47 27.5 76t72.5 29q47 0 75 -29t28 -76q0 -43 -27.5 -71.5t-75.5 -28.5q-45 0 -72.5 28.5t-27.5 71.5z" />
<glyph unicode="&#x100;" horiz-adv-x="1198" d="M856 397h-528l-144 -397h-168l543 1456h78l545 -1456h-178zM383 545h422l-160 436l-51 217h-2l-51 -221zM273 1726h647v-127h-647v127z" />
<glyph unicode="&#x101;" horiz-adv-x="1015" d="M141 948q78 47 181.5 69.5t216.5 22.5q106 0 170.5 -28.5t98.5 -74.5t45 -101.5t11 -110.5q0 -123 -6 -239.5t-6 -221.5q0 -76 6 -143.5t23 -124.5h-121l-43 143h-10q-18 -29 -46 -56.5t-67 -49t-90 -35.5t-117 -14t-122 20.5t-97 58t-64.5 91t-23.5 120.5q0 90 37 150.5 t103.5 96.5t159.5 51.5t206 15.5h56q28 0 56 -4q6 61 7 110q0 113 -45.5 158t-163.5 45q-35 0 -75 -5t-82 -14.5t-80 -22.5t-66 -30zM432 127q57 0 102.5 15.5t78 39t54 52t31.5 55.5v170q-29 2 -58.5 3t-57.5 1q-63 0 -124 -7t-107 -26.5t-73.5 -53.5t-27.5 -85 q0 -72 51 -118t131 -46zM207 1317h606v-127h-606v127z" />
<glyph unicode="&#x102;" horiz-adv-x="1198" d="M856 397h-528l-144 -397h-168l543 1456h78l545 -1456h-178zM383 545h422l-160 436l-51 217h-2l-51 -221zM336 1784q35 -70 106.5 -108t167.5 -38q98 0 166 43t97 103l81 -39q-18 -59 -52 -105.5t-80 -79t-101 -49t-113 -16.5q-55 0 -109.5 14.5t-101.5 43t-86 74.5 t-63 108z" />
<glyph unicode="&#x103;" horiz-adv-x="1015" d="M141 948q78 47 181.5 69.5t216.5 22.5q106 0 170.5 -28.5t98.5 -74.5t45 -101.5t11 -110.5q0 -123 -6 -239.5t-6 -221.5q0 -76 6 -143.5t23 -124.5h-121l-43 143h-10q-18 -29 -46 -56.5t-67 -49t-90 -35.5t-117 -14t-122 20.5t-97 58t-64.5 91t-23.5 120.5q0 90 37 150.5 t103.5 96.5t159.5 51.5t206 15.5h56q28 0 56 -4q6 61 7 110q0 113 -45.5 158t-163.5 45q-35 0 -75 -5t-82 -14.5t-80 -22.5t-66 -30zM432 127q57 0 102.5 15.5t78 39t54 52t31.5 55.5v170q-29 2 -58.5 3t-57.5 1q-63 0 -124 -7t-107 -26.5t-73.5 -53.5t-27.5 -85 q0 -72 51 -118t131 -46zM289 1475q37 -74 98.5 -116t130.5 -42q70 0 126.5 41t91.5 117l86 -37q-6 -49 -32 -97.5t-66 -85t-93 -59t-115 -22.5q-57 0 -108 17t-93 51t-73 80t-45 105z" />
<glyph unicode="&#x104;" horiz-adv-x="1198" d="M856 397h-528l-144 -397h-168l543 1456h78l545 -1456h-45q-53 -33 -85 -77t-32 -103q0 -41 27.5 -72t78.5 -31q39 0 82 19l23 -86q-31 -25 -82 -37t-94 -12q-90 0 -146.5 48t-56.5 132q0 72 44 128t122 91h-14zM383 545h422l-160 436l-51 217h-2l-51 -221z" />
<glyph unicode="&#x105;" horiz-adv-x="1015" d="M141 948q78 47 181.5 69.5t216.5 22.5q106 0 170.5 -28.5t98.5 -74.5t45 -101.5t11 -110.5q0 -123 -6 -239.5t-6 -221.5q0 -76 6 -143.5t23 -124.5h-47q-51 -33 -80 -77t-29 -97q0 -41 26.5 -73t77.5 -32q39 0 82 21l23 -88q-31 -25 -82 -37t-94 -12q-92 0 -147.5 49 t-55.5 133q0 80 53.5 138.5t145.5 92.5l-37 125h-10q-18 -29 -46 -56.5t-67 -49t-90 -35.5t-117 -14t-122 20.5t-97 58t-64.5 91t-23.5 120.5q0 90 37 150.5t103.5 96.5t159.5 51.5t206 15.5h56q28 0 56 -4q6 61 7 110q0 113 -45.5 158t-163.5 45q-35 0 -75 -4t-82 -13.5 t-80 -21.5t-66 -29zM432 127q57 0 102.5 15.5t78 39t54 52t31.5 55.5v170q-29 2 -58.5 3t-57.5 1q-63 0 -124 -7t-107 -26.5t-73.5 -53.5t-27.5 -85q0 -72 51 -118t131 -46z" />
<glyph unicode="&#x106;" horiz-adv-x="1169" d="M1092 59q-61 -47 -155.5 -65.5t-201.5 -18.5q-129 0 -241.5 44t-196.5 134.5t-133 230.5t-49 333q0 201 54 341t143 229t200 130t225 41q123 0 201 -13t133 -36l-41 -149q-98 47 -280 47q-84 0 -166 -31t-146.5 -100.5t-103.5 -182t-39 -276.5q0 -147 37 -258 t101.5 -184.5t151.5 -110.5t189 -37q92 0 161 18.5t116 47.5zM854 1782h233v-43l-334 -199h-141z" />
<glyph unicode="&#x107;" horiz-adv-x="923" d="M856 68q-61 -45 -145 -69t-176 -24q-119 0 -201 38t-134.5 109t-76 170t-23.5 220q0 260 115 398.5t330 138.5q98 0 166.5 -15.5t124.5 -44.5l-48 -141q-47 27 -104 42t-123 15q-291 0 -291 -393q0 -78 15.5 -148.5t51.5 -125t94 -87t144 -32.5q74 0 132.5 22.5 t95.5 51.5zM594 1475h182v-43l-207 -263h-96z" />
<glyph unicode="&#x108;" horiz-adv-x="1169" d="M1092 59q-61 -47 -155.5 -65.5t-201.5 -18.5q-129 0 -241.5 44t-196.5 134.5t-133 230.5t-49 333q0 201 54 341t143 229t200 130t225 41q123 0 201 -13t133 -36l-41 -149q-98 47 -280 47q-84 0 -166 -31t-146.5 -100.5t-103.5 -182t-39 -276.5q0 -147 37 -258 t101.5 -184.5t151.5 -110.5t189 -37q92 0 161 18.5t116 47.5zM655 1782h123l260 -209v-43h-166l-123 100l-34 72l-39 -70l-131 -102h-162v45z" />
<glyph unicode="&#x109;" horiz-adv-x="923" d="M856 68q-61 -45 -145 -69t-176 -24q-119 0 -201 38t-134.5 109t-76 170t-23.5 220q0 260 115 398.5t330 138.5q98 0 166.5 -15.5t124.5 -44.5l-48 -141q-47 27 -104 42t-123 15q-291 0 -291 -393q0 -78 15.5 -148.5t51.5 -125t94 -87t144 -32.5q74 0 132.5 22.5 t95.5 51.5zM486 1499h65l228 -373h-148l-80 136l-43 118l-45 -118l-92 -136h-137z" />
<glyph unicode="&#x10c;" horiz-adv-x="1169" d="M1092 59q-61 -47 -155.5 -65.5t-201.5 -18.5q-129 0 -241.5 44t-196.5 134.5t-133 230.5t-49 333q0 201 54 341t143 229t200 130t225 41q123 0 201 -13t133 -36l-41 -149q-98 47 -280 47q-84 0 -166 -31t-146.5 -100.5t-103.5 -182t-39 -276.5q0 -147 37 -258 t101.5 -184.5t151.5 -110.5t189 -37q92 0 161 18.5t116 47.5zM783 1528h-119l-260 211v43h168l121 -103l34 -69l39 67l129 105h160v-45z" />
<glyph unicode="&#x10d;" horiz-adv-x="923" d="M856 68q-61 -45 -145 -69t-176 -24q-119 0 -201 38t-134.5 109t-76 170t-23.5 220q0 260 115 398.5t330 138.5q98 0 166.5 -15.5t124.5 -44.5l-48 -141q-47 27 -104 42t-123 15q-291 0 -291 -393q0 -78 15.5 -148.5t51.5 -125t94 -87t144 -32.5q74 0 132.5 22.5 t95.5 51.5zM553 1126h-76l-235 373h160l79 -135l44 -119l45 119l92 135h143z" />
<glyph unicode="&#x10e;" horiz-adv-x="1339" d="M174 1434q39 6 87 9t100 4l103 2q50 1 93 1q172 0 298 -53.5t208 -148.5t122 -228t40 -293q0 -145 -38 -279.5t-120 -238t-213 -165.5t-317 -62q-33 0 -85.5 1t-107.5 4t-102 5t-68 6v1436zM561 1298h-58q-32 0 -62.5 -2t-56.5 -4t-40 -4v-1147q10 -2 39 -3l59 -2l60 -2 q29 -1 39 -1q143 0 240.5 49t155.5 132t82.5 190.5t24.5 222.5q0 100 -22.5 201.5t-77.5 183.5t-148.5 134t-234.5 52zM627 1528h-119l-260 211v43h168l121 -103l34 -69l39 67l129 105h160v-45z" />
<glyph unicode="&#x10f;" horiz-adv-x="1206" d="M944 352q0 -104 2 -189t19 -167h-111l-41 145h-8q-41 -72 -119 -119t-182 -47q-205 0 -304.5 129t-99.5 404q0 262 124 398t341 136q76 0 120 -8t95 -26v426h164v-1082zM530 119q104 0 166 54t84 165v508q-37 29 -84 41t-125 12q-141 0 -221 -93t-80 -298 q0 -84 13.5 -155.5t44 -123t80.5 -81t122 -29.5zM1257 1434q-4 -59 -24.5 -122t-46 -116t-52 -94t-45.5 -60l-67 37q35 74 53 167t18 188h164z" />
<glyph unicode="&#x110;" horiz-adv-x="1347" d="M-2 803h184v631q39 6 87 9t101 4l102 2q50 1 93 1q172 0 298 -53.5t208 -148.5t122 -228t40 -293q0 -145 -38 -279.5t-120 -238t-213 -165.5t-317 -62q-33 0 -85 1t-107.5 4t-102.5 5t-68 6v682h-184v123zM569 1298h-58q-32 0 -62.5 -2t-56 -4t-40.5 -4v-485h301v-123 h-301v-539q10 -2 39 -3l60 -2l59 -2q29 -1 39 -1q143 0 240.5 49t156 132t83 190.5t24.5 222.5q0 100 -22.5 201.5t-78 183.5t-149 134t-234.5 52z" />
<glyph unicode="&#x111;" horiz-adv-x="1105" d="M944 1294h166v-123h-166v-819q0 -104 2 -189t19 -167h-111l-41 145h-8q-41 -72 -119 -119t-182 -47q-205 0 -304.5 129t-99.5 404q0 262 124 398t341 136q76 0 120 -8t95 -26v163h-321v123h321v140h164v-140zM530 119q104 0 166 54t84 165v510q-37 29 -84 40t-125 11 q-141 0 -221 -93t-80 -298q0 -84 13.5 -155.5t44 -124t80.5 -81t122 -28.5z" />
<glyph unicode="&#x112;" horiz-adv-x="1097" d="M174 1434h780v-152h-610v-469h559v-151h-559v-510h621v-152h-791v1434zM223 1726h647v-127h-647v127z" />
<glyph unicode="&#x113;" horiz-adv-x="1040" d="M905 82q-61 -49 -154.5 -78t-197.5 -29q-117 0 -203 38t-141 109t-82 169t-27 221q0 262 117 399.5t334 137.5q70 0 139.5 -15.5t124.5 -58.5t90 -122t35 -208q0 -68 -12 -149h-658q0 -90 18.5 -160t57.5 -118t101.5 -73.5t152.5 -25.5q70 0 139.5 24.5t104.5 57.5z M553 905q-121 0 -193.5 -63.5t-87.5 -216.5h508q0 156 -59 218t-168 62zM219 1317h606v-127h-606v127z" />
<glyph unicode="&#x116;" horiz-adv-x="1097" d="M174 1434h780v-152h-610v-469h559v-151h-559v-510h621v-152h-791v1434zM434 1632q0 43 33.5 75t93.5 32q59 0 95 -32t36 -75q0 -47 -36 -77.5t-95 -30.5t-93 30.5t-34 77.5z" />
<glyph unicode="&#x117;" horiz-adv-x="1040" d="M905 82q-61 -49 -154.5 -78t-197.5 -29q-117 0 -203 38t-141 109t-82 169t-27 221q0 262 117 399.5t334 137.5q70 0 139.5 -15.5t124.5 -58.5t90 -122t35 -208q0 -68 -12 -149h-658q0 -90 18.5 -160t57.5 -118t101.5 -73.5t152.5 -25.5q70 0 139.5 24.5t104.5 57.5z M553 905q-121 0 -193.5 -63.5t-87.5 -216.5h508q0 156 -59 218t-168 62zM442 1335q0 47 31.5 81t81.5 34q49 0 83.5 -34t34.5 -81t-34.5 -77.5t-83.5 -30.5t-81 30.5t-32 77.5z" />
<glyph unicode="&#x118;" horiz-adv-x="1097" d="M174 1434h780v-152h-610v-469h559v-151h-559v-510h621v-152h-74q-53 -33 -85 -76t-32 -102q0 -41 26.5 -73t78.5 -32q39 0 82 21l22 -88q-31 -25 -82 -37t-94 -12q-92 0 -147.5 49t-55.5 133q0 72 43 127t121 90h-594v1434z" />
<glyph unicode="&#x119;" horiz-adv-x="1040" d="M905 82q-23 -18 -49.5 -32.5t-54.5 -26.5q-70 -35 -109 -85.5t-41 -115.5q2 -43 30 -74t79 -33q39 2 82 21l22 -88q-31 -25 -83 -36t-95 -11q-92 2 -146.5 50t-56.5 132q0 61 31 110.5t84 83.5q-10 -2 -23 -2h-22q-117 0 -203 38t-141 109t-82 169t-27 221 q0 262 117 399.5t334 137.5q70 0 139.5 -15.5t124.5 -58.5t90 -122t35 -208q0 -68 -12 -149h-658q0 -90 18.5 -160t57.5 -119t101.5 -73.5t152.5 -24.5q70 0 139.5 24.5t104.5 57.5zM553 905q-121 0 -193.5 -63.5t-87.5 -216.5h508q0 156 -59 218t-168 62z" />
<glyph unicode="&#x11a;" horiz-adv-x="1097" d="M174 1434h780v-152h-610v-469h559v-151h-559v-510h621v-152h-791v1434zM602 1528h-119l-260 211v43h168l121 -103l34 -69l39 67l129 105h160v-45z" />
<glyph unicode="&#x11b;" horiz-adv-x="1040" d="M905 82q-61 -49 -154.5 -78t-197.5 -29q-117 0 -203 38t-141 109t-82 169t-27 221q0 262 117 399.5t334 137.5q70 0 139.5 -15.5t124.5 -58.5t90 -122t35 -208q0 -68 -12 -149h-658q0 -90 18.5 -160t57.5 -118t101.5 -73.5t152.5 -25.5q70 0 139.5 24.5t104.5 57.5z M553 905q-121 0 -193.5 -63.5t-87.5 -216.5h508q0 156 -59 218t-168 62zM571 1126h-76l-235 373h160l79 -135l44 -119l45 119l92 135h143z" />
<glyph unicode="&#x11c;" horiz-adv-x="1253" d="M657 715h482v-631q-33 -25 -79 -45.5t-98.5 -34.5t-108.5 -21.5t-110 -7.5q-137 0 -251.5 44t-198.5 135.5t-131 231.5t-47 331q0 199 57 340t149.5 230t207 130t229.5 41q123 0 202.5 -13t135.5 -36l-43 -149q-98 47 -281 47q-86 0 -171 -30t-152.5 -99.5t-110.5 -182 t-43 -278.5q0 -152 35 -262.5t97 -183t150.5 -108.5t192.5 -36q131 0 223 51v400l-336 40v97zM678 1782h123l260 -209v-43h-166l-123 100l-34 72l-39 -70l-131 -102h-162v45z" />
<glyph unicode="&#x11d;" horiz-adv-x="1099" d="M942 -47q0 -199 -105.5 -293t-312.5 -94q-123 0 -197.5 15.5t-127.5 39.5l43 139q47 -18 104 -34.5t150 -16.5q86 0 140 15.5t87 51.5t45 92t12 134v98h-8q-41 -59 -104.5 -91t-165.5 -32q-207 0 -304.5 129.5t-97.5 401.5q0 262 125 398t369 136q117 0 200 -18t148 -43 v-1028zM530 121q104 0 164 52t84 163v524q-82 39 -209 39q-139 0 -219 -94t-80 -295q0 -86 14.5 -157.5t45 -123t79.5 -80t121 -28.5zM533 1499h65l228 -373h-148l-80 136l-43 118l-45 -118l-92 -136h-137z" />
<glyph unicode="&#x11e;" horiz-adv-x="1253" d="M657 715h482v-631q-33 -25 -79 -45.5t-98.5 -34.5t-108.5 -21.5t-110 -7.5q-137 0 -251.5 44t-198.5 135.5t-131 231.5t-47 331q0 199 57 340t149.5 230t207 130t229.5 41q123 0 202.5 -13t135.5 -36l-43 -149q-98 47 -281 47q-86 0 -171 -30t-152.5 -99.5t-110.5 -182 t-43 -278.5q0 -152 35 -262.5t97 -183t150.5 -108.5t192.5 -36q131 0 223 51v400l-336 40v97zM457 1784q35 -70 106.5 -108t167.5 -38q98 0 166 43t97 103l81 -39q-18 -59 -52 -105.5t-80 -79t-101 -49t-113 -16.5q-55 0 -109.5 14.5t-101.5 43t-86 74.5t-63 108z" />
<glyph unicode="&#x11f;" horiz-adv-x="1099" d="M942 -47q0 -199 -105.5 -293t-312.5 -94q-123 0 -197.5 15.5t-127.5 39.5l43 139q47 -18 104 -34.5t150 -16.5q86 0 140 15.5t87 51.5t45 92t12 134v98h-8q-41 -59 -104.5 -91t-165.5 -32q-207 0 -304.5 129.5t-97.5 401.5q0 262 125 398t369 136q117 0 200 -18t148 -43 v-1028zM530 121q104 0 164 52t84 163v524q-82 39 -209 39q-139 0 -219 -94t-80 -295q0 -86 14.5 -157.5t45 -123t79.5 -80t121 -28.5zM330 1475q37 -74 98.5 -116t130.5 -42q70 0 126.5 41t91.5 117l86 -37q-6 -49 -32 -97.5t-66 -85t-93 -59t-115 -22.5q-57 0 -108 17 t-93 51t-73 80t-45 105z" />
<glyph unicode="&#x122;" horiz-adv-x="1253" d="M657 715h482v-631q-33 -25 -79 -45.5t-98.5 -34.5t-108.5 -21.5t-110 -7.5q-137 0 -251.5 44t-198.5 135.5t-131 231.5t-47 331q0 199 57 340t149.5 230t207 130t229.5 41q123 0 202.5 -13t135.5 -36l-43 -149q-98 47 -281 47q-86 0 -171 -30t-152.5 -99.5t-110.5 -182 t-43 -278.5q0 -152 35 -262.5t97 -183t150.5 -108.5t192.5 -36q131 0 223 51v400l-336 40v97zM602 -209q0 43 31.5 69.5t72.5 26.5q51 0 91 -35.5t40 -117.5q0 -53 -18 -93t-44 -70t-53.5 -47.5t-47.5 -25.5l-58 66q41 23 65.5 57.5t24.5 83.5q-8 -2 -20 -2 q-37 0 -60.5 24.5t-23.5 63.5z" />
<glyph unicode="&#x123;" horiz-adv-x="1099" d="M942 -47q0 -199 -105.5 -293t-312.5 -94q-123 0 -197.5 15.5t-127.5 39.5l43 139q47 -18 104 -34.5t150 -16.5q86 0 140 15.5t87 51.5t45 92t12 134v98h-8q-41 -59 -104.5 -91t-165.5 -32q-207 0 -304.5 129.5t-97.5 401.5q0 262 125 398t369 136q117 0 200 -18t148 -43 v-1028zM530 121q104 0 164 52t84 163v524q-82 39 -209 39q-139 0 -219 -94t-80 -295q0 -86 14.5 -157.5t45 -123t79.5 -80t121 -28.5zM706.008 1246.99q0 -42.9971 -31.598 -69.4961q-31.598 -26.498 -72.4961 -26.498q-50.9971 0 -90.9941 35.498 q-39.998 35.4971 -39.998 117.492q0 52.9971 17.999 92.9951q17.999 39.9971 43.9971 69.9951q25.999 29.998 53.4971 47.4971t47.4971 25.499l57.9971 -65.9961q-40.998 -22.999 -65.4961 -57.4971q-24.499 -34.498 -24.499 -83.4941q8 1.99902 19.999 1.99902 q36.998 0 60.4961 -24.498q23.499 -24.499 23.499 -63.4961z" />
<glyph unicode="&#x124;" horiz-adv-x="1376" d="M1032 657h-688v-657h-170v1434h170v-625h688v625h170v-1434h-170v657zM628 1782h123l260 -209v-43h-166l-123 100l-34 72l-39 -70l-131 -102h-162v45z" />
<glyph unicode="&#x125;" horiz-adv-x="1120" d="M815 0v584q0 80 -9 140t-33.5 100t-66.5 60.5t-110 20.5q-96 0 -174 -62.5t-100 -160.5v-682h-164v1434h164v-525h8q53 63 127.5 101.5t185.5 38.5q86 0 149.5 -19.5t105.5 -69t61.5 -132.5t19.5 -210v-618h-164zM536 1782h123l260 -209v-43h-166l-123 100l-34 72 l-39 -70l-131 -102h-162v45z" />
<glyph unicode="&#x126;" horiz-adv-x="1386" d="M18 1202h162v232h170v-232h688v232h170v-232h162v-131h-162v-1071h-170v657h-688v-657h-170v1071h-162v131zM1038 809v262h-688v-262h688z" />
<glyph unicode="&#x127;" horiz-adv-x="1124" d="M-2 1294h164v140h164v-140h327v-123h-327v-262h8q53 63 128 101.5t185 38.5q86 0 149.5 -19.5t105.5 -69t61.5 -132.5t19.5 -210v-618h-164v584q0 80 -9 140t-33.5 100t-66.5 60.5t-110 20.5q-96 0 -174 -62.5t-100 -160.5v-682h-164v1171h-164v123z" />
<glyph unicode="&#x12a;" horiz-adv-x="595" d="M213 1434h170v-1434h-170v1434zM-22 1726h647v-127h-647v127z" />
<glyph unicode="&#x12b;" horiz-adv-x="548" d="M193 1024h163v-1024h-163v1024zM-27 1317h606v-127h-606v127z" />
<glyph unicode="&#x12e;" horiz-adv-x="595" d="M213 1434h170v-1434h-29q-53 -33 -83.5 -77t-30.5 -103q0 -41 26.5 -73t77.5 -32q39 0 82 21l23 -88q-31 -25 -82.5 -36t-94.5 -11q-92 0 -147 48t-55 132q0 72 43 128t120 91h-20v1434z" />
<glyph unicode="&#x12f;" horiz-adv-x="550" d="M193 1024h163v-1024h-37q-51 -33 -80.5 -78t-29.5 -102q0 -41 26.5 -73t77.5 -32q39 0 82 21l23 -88q-31 -25 -82 -36t-96 -11q-92 0 -146.5 48t-54.5 132q0 72 43 128t121 91h-10v1024zM158 1335q0 47 31.5 81t80.5 34t84 -34t35 -81t-35 -77.5t-84 -30.5t-80.5 30.5 t-31.5 77.5z" />
<glyph unicode="&#x130;" horiz-adv-x="595" d="M213 1434h170v-1434h-170v1434zM172 1632q0 43 33.5 75t93.5 32q59 0 95 -32t36 -75q0 -47 -36 -77.5t-95 -30.5t-93 30.5t-34 77.5z" />
<glyph unicode="&#x131;" horiz-adv-x="548" d="M193 1024h163v-1024h-163v1024z" />
<glyph unicode="&#x134;" horiz-adv-x="595" d="M229 1434h170v-1119q0 -164 -72.5 -249.5t-220.5 -85.5q-16 0 -40.5 2t-49 6t-48 10t-38.5 14l33 146q57 -27 125 -27q86 0 113.5 60.5t27.5 164.5v1078zM256 1782h123l260 -209v-43h-166l-123 100l-34 72l-39 -70l-131 -102h-162v45z" />
<glyph unicode="&#x135;" horiz-adv-x="546" d="M190 1024h164v-1079q0 -190 -65.5 -284.5t-208.5 -94.5q-16 0 -30.5 1t-31.5 3v139q57 0 91 17.5t52.5 54.5t23.5 93t5 132v1018zM254 1499h65l228 -373h-148l-80 136l-43 118l-45 -118l-92 -136h-137z" />
<glyph unicode="&#x136;" horiz-adv-x="1249" d="M440 664h-96v-664h-170v1434h170v-668l92 29l482 639h196l-479 -617l-86 -67l104 -82l525 -668h-215zM475 -209q0 43 31.5 69.5t72.5 26.5q51 0 91 -35.5t40 -117.5q0 -53 -18 -93t-44 -70t-53.5 -47.5t-47.5 -25.5l-58 66q41 23 65.5 57.5t24.5 83.5q-8 -2 -20 -2 q-37 0 -60.5 24.5t-23.5 63.5z" />
<glyph unicode="&#x137;" horiz-adv-x="980" d="M416 461h-94v-461h-164v1434h164v-873l84 29l317 434h190l-313 -412l-84 -67l102 -82l343 -463h-203zM375 -209q0 43 31.5 69.5t72.5 26.5q51 0 91 -35.5t40 -117.5q0 -53 -18 -93t-44 -70t-53.5 -47.5t-47.5 -25.5l-58 66q41 23 65.5 57.5t24.5 83.5q-8 -2 -20 -2 q-37 0 -60.5 24.5t-23.5 63.5z" />
<glyph unicode="&#x139;" horiz-adv-x="1058" d="M1022 0h-848v1434h170v-1282h678v-152zM474 1782h233v-43l-334 -199h-141z" />
<glyph unicode="&#x13a;" horiz-adv-x="598" d="M340 252q0 -72 24.5 -102.5t69.5 -30.5q27 0 57.5 4t69.5 18l19 -129q-33 -16 -91.5 -26.5t-101.5 -10.5q-92 0 -151.5 52.5t-59.5 177.5v1229h164v-1182zM426 1782h233v-43l-334 -199h-141z" />
<glyph unicode="&#x13b;" horiz-adv-x="1058" d="M1022 0h-848v1434h170v-1282h678v-152zM393 -209q0 43 31.5 69.5t72.5 26.5q51 0 91 -35.5t40 -117.5q0 -53 -18 -93t-44 -70t-53.5 -47.5t-47.5 -25.5l-58 66q41 23 65.5 57.5t24.5 83.5q-8 -2 -20 -2q-37 0 -60.5 24.5t-23.5 63.5z" />
<glyph unicode="&#x13c;" horiz-adv-x="598" d="M340 252q0 -72 24.5 -102.5t69.5 -30.5q27 0 57.5 4t69.5 18l19 -129q-33 -16 -91.5 -26.5t-101.5 -10.5q-92 0 -151.5 52.5t-59.5 177.5v1229h164v-1182zM240 -209q0 43 31.5 69.5t72.5 26.5q51 0 91 -35.5t40 -117.5q0 -53 -18 -93t-44 -70t-53.5 -47.5t-47.5 -25.5 l-58 66q41 23 65.5 57.5t24.5 83.5q-8 -2 -20 -2q-37 0 -60.5 24.5t-23.5 63.5z" />
<glyph unicode="&#x13d;" horiz-adv-x="1058" d="M1022 0h-848v1434h170v-1282h678v-152zM878 1434q-4 -59 -24.5 -122t-46 -116t-52 -94t-45.5 -60l-67 37q35 74 53 167t18 188h164z" />
<glyph unicode="&#x13e;" horiz-adv-x="598" d="M340 252q0 -72 24.5 -102.5t69.5 -30.5q27 0 57.5 4t69.5 18l19 -129q-33 -16 -91.5 -26.5t-101.5 -10.5q-92 0 -151.5 52.5t-59.5 177.5v1229h164v-1182zM657 1434q-4 -59 -24.5 -122t-46 -116t-52 -94t-45.5 -60l-67 37q35 74 53 167t18 188h164z" />
<glyph unicode="&#x141;" horiz-adv-x="1058" d="M31 588l143 112v734h170v-600l219 172v-164l-219 -168v-522h678v-152h-848v543l-143 -111v156z" />
<glyph unicode="&#x142;" horiz-adv-x="598" d="M20 584l156 121v729h164v-600l213 167v-163l-213 -164v-422q0 -72 24.5 -102.5t69.5 -30.5q27 0 57.5 4t69.5 18l19 -129q-33 -16 -91.5 -26.5t-101.5 -10.5q-92 0 -151.5 52.5t-59.5 177.5v342l-156 -119v156z" />
<glyph unicode="&#x143;" horiz-adv-x="1378" d="M432 938l-110 207h-9l21 -207v-938h-160v1456h90l686 -956l107 -197h10l-23 197v934h160v-1457h-90zM834 1782h233v-43l-334 -199h-141z" />
<glyph unicode="&#x144;" horiz-adv-x="1120" d="M815 0v584q0 160 -46 240.5t-169 80.5q-109 0 -179.5 -58.5t-98.5 -146.5v-700h-164v1024h114l31 -125h8q49 66 132 108t198 42q84 0 147.5 -19.5t105.5 -69t63.5 -132.5t21.5 -210v-618h-164zM615 1475h182v-43l-207 -263h-96z" />
<glyph unicode="&#x145;" horiz-adv-x="1378" d="M432 938l-110 207h-9l21 -207v-938h-160v1456h90l686 -956l107 -197h10l-23 197v934h160v-1457h-90zM572 -209q0 43 31.5 69.5t72.5 26.5q51 0 91 -35.5t40 -117.5q0 -53 -18 -93t-44 -70t-53.5 -47.5t-47.5 -25.5l-58 66q41 23 65.5 57.5t24.5 83.5q-8 -2 -20 -2 q-37 0 -60.5 24.5t-23.5 63.5z" />
<glyph unicode="&#x146;" horiz-adv-x="1120" d="M815 0v584q0 160 -46 240.5t-169 80.5q-109 0 -179.5 -58.5t-98.5 -146.5v-700h-164v1024h114l31 -125h8q49 66 132 108t198 42q84 0 147.5 -19.5t105.5 -69t63.5 -132.5t21.5 -210v-618h-164zM442 -209q0 43 31.5 69.5t72.5 26.5q51 0 91 -35.5t40 -117.5q0 -53 -18 -93 t-44 -70t-53.5 -47.5t-47.5 -25.5l-58 66q41 23 65.5 57.5t24.5 83.5q-8 -2 -20 -2q-37 0 -60.5 24.5t-23.5 63.5z" />
<glyph unicode="&#x147;" horiz-adv-x="1378" d="M432 938l-110 207h-9l21 -207v-938h-160v1456h90l686 -956l107 -197h10l-23 197v934h160v-1457h-90zM746 1528h-119l-260 211v43h168l121 -103l34 -69l39 67l129 105h160v-45z" />
<glyph unicode="&#x148;" horiz-adv-x="1120" d="M815 0v584q0 160 -46 240.5t-169 80.5q-109 0 -179.5 -58.5t-98.5 -146.5v-700h-164v1024h114l31 -125h8q49 66 132 108t198 42q84 0 147.5 -19.5t105.5 -69t63.5 -132.5t21.5 -210v-618h-164zM592 1126h-76l-235 373h160l79 -135l44 -119l45 119l92 135h143z" />
<glyph unicode="&#x14c;" horiz-adv-x="1400" d="M115 717q0 358 151.5 549.5t431.5 191.5q152 0 262.5 -53t183.5 -150.5t107.5 -233.5t34.5 -304q0 -358 -152.5 -550t-435.5 -192q-150 0 -259 53.5t-182 150.5t-107.5 233.5t-34.5 304.5zM295 717q0 -119 23.5 -225.5t72.5 -187.5t126 -129t181 -48q190 0 299 144.5 t109 445.5q0 117 -23.5 224.5t-74 188t-127 129t-183.5 48.5q-188 0 -295.5 -144.5t-107.5 -445.5zM389 1726h647v-127h-647v127z" />
<glyph unicode="&#x14d;" horiz-adv-x="1097" d="M100 512q0 260 116 398.5t333 138.5q115 0 200 -38t140 -109t81.5 -170t26.5 -220q0 -260 -115.5 -398.5t-332.5 -138.5q-115 0 -200 38t-140 109t-82 170t-27 220zM270 512q0 -78 15.5 -149.5t48.5 -125t86 -86t129 -32.5h3q276 0 275 393q0 80 -15 151.5t-48 125 t-86 85t-129 31.5h-3q-276 0 -276 -393zM246 1317h606v-127h-606v127z" />
<glyph unicode="&#x150;" horiz-adv-x="1400" d="M115 717q0 358 151.5 549.5t431.5 191.5q152 0 262.5 -53t183.5 -150.5t107.5 -233.5t34.5 -304q0 -358 -152.5 -550t-435.5 -192q-150 0 -259 53.5t-182 150.5t-107.5 233.5t-34.5 304.5zM295 717q0 -119 23.5 -225.5t72.5 -187.5t126 -129t181 -48q190 0 299 144.5 t109 445.5q0 117 -23.5 224.5t-74 188t-127 129t-183.5 48.5q-188 0 -295.5 -144.5t-107.5 -445.5zM627 1741h190v-33l-204 -190h-117zM959 1741h202v-33l-292 -190h-119z" />
<glyph unicode="&#x151;" horiz-adv-x="1097" d="M100 512q0 260 116 398.5t333 138.5q115 0 200 -38t140 -109t81.5 -170t26.5 -220q0 -260 -115.5 -398.5t-332.5 -138.5q-115 0 -200 38t-140 109t-82 170t-27 220zM270 512q0 -78 15.5 -149.5t48.5 -125t86 -86t129 -32.5h3q276 0 275 393q0 80 -15 151.5t-48 125 t-86 85t-129 31.5h-3q-276 0 -276 -393zM433 1434h159v-33l-145 -232h-86zM732 1434h176v-33l-234 -232h-92z" />
<glyph unicode="&#x152;" horiz-adv-x="1908" d="M985 1266q-57 23 -133 32t-154 9q-188 0 -295.5 -144.5t-107.5 -445.5q0 -119 23.5 -225.5t74.5 -187.5t131 -129t191 -48q59 0 121.5 4t148.5 31v1104zM985 0q-51 -10 -122.5 -17.5t-164.5 -7.5q-150 0 -259 53.5t-182 150.5t-107.5 233.5t-34.5 304.5 q0 358 151.5 549.5t431.5 191.5q96 0 159 -7t128 -17h780v-152h-610v-469h559v-151h-559v-510h621v-152h-791z" />
<glyph unicode="&#x153;" horiz-adv-x="1757" d="M270 512q0 -78 15.5 -149.5t48.5 -126t86 -86t129 -31.5q276 -2 276 393q0 80 -14 151.5t-47 125t-86 85t-129 31.5q-279 2 -279 -393zM905 166q-55 -92 -144 -141.5t-212 -49.5q-115 0 -200 38t-140 109t-82 170t-27 220q0 260 116 398.5t333 138.5q129 0 218 -53.5 t142 -135.5q53 86 144.5 137.5t214.5 51.5q70 0 139.5 -15.5t124.5 -58.5t90 -122t35 -208q0 -35 -2 -71.5t-8 -77.5h-662q0 -90 18.5 -161t57.5 -120t102.5 -73.5t153.5 -24.5q72 0 140.5 25.5t103.5 58.5l61 -119q-61 -49 -154.5 -78t-197.5 -29q-127 0 -219.5 51.5 t-145.5 139.5zM1270 907q-119 0 -192.5 -64.5t-88.5 -217.5h508v18q0 141 -61.5 202.5t-165.5 61.5z" />
<glyph unicode="&#x154;" horiz-adv-x="1218" d="M174 1419q78 14 179.5 22.5t185.5 8.5q94 0 179 -20.5t149.5 -67.5t103.5 -123t39 -184q0 -168 -92.5 -272.5t-233.5 -139.5l98 -76l357 -567h-199l-395 618l-201 31v-649h-170v1419zM543 1303h-56q-29 0 -55 -2.5t-50 -4.5t-38 -6v-528h160q141 0 233 69.5t92 217.5 q0 111 -75.5 182.5t-210.5 71.5zM656 1782h233v-43l-334 -199h-141z" />
<glyph unicode="&#x155;" horiz-adv-x="696" d="M641 866q-61 20 -117 21q-88 0 -139 -48t-63 -122v-717h-164v1024h114l31 -125h8q39 70 93.5 107.5t138.5 37.5q59 0 133 -20zM400 1475h182v-43l-207 -263h-96z" />
<glyph unicode="&#x156;" horiz-adv-x="1218" d="M174 1419q78 14 179.5 22.5t185.5 8.5q94 0 179 -20.5t149.5 -67.5t103.5 -123t39 -184q0 -168 -92.5 -272.5t-233.5 -139.5l98 -76l357 -567h-199l-395 618l-201 31v-649h-170v1419zM543 1303h-56q-29 0 -55 -2.5t-50 -4.5t-38 -6v-528h160q141 0 233 69.5t92 217.5 q0 111 -75.5 182.5t-210.5 71.5zM490 -209q0 43 31.5 69.5t72.5 26.5q51 0 91 -35.5t40 -117.5q0 -53 -18 -93t-44 -70t-53.5 -47.5t-47.5 -25.5l-58 66q41 23 65.5 57.5t24.5 83.5q-8 -2 -20 -2q-37 0 -60.5 24.5t-23.5 63.5z" />
<glyph unicode="&#x157;" horiz-adv-x="696" d="M641 866q-61 20 -117 21q-88 0 -139 -48t-63 -122v-717h-164v1024h114l31 -125h8q39 70 93.5 107.5t138.5 37.5q59 0 133 -20zM174 -209q0 43 31.5 69.5t72.5 26.5q51 0 91 -35.5t40 -117.5q0 -53 -18 -93t-44 -70t-53.5 -47.5t-47.5 -25.5l-58 66q41 23 65.5 57.5 t24.5 83.5q-8 -2 -20 -2q-37 0 -60.5 24.5t-23.5 63.5z" />
<glyph unicode="&#x158;" horiz-adv-x="1218" d="M174 1419q78 14 179.5 22.5t185.5 8.5q94 0 179 -20.5t149.5 -67.5t103.5 -123t39 -184q0 -168 -92.5 -272.5t-233.5 -139.5l98 -76l357 -567h-199l-395 618l-201 31v-649h-170v1419zM543 1303h-56q-29 0 -55 -2.5t-50 -4.5t-38 -6v-528h160q141 0 233 69.5t92 217.5 q0 111 -75.5 182.5t-210.5 71.5zM568 1528h-119l-260 211v43h168l121 -103l34 -69l39 67l129 105h160v-45z" />
<glyph unicode="&#x159;" horiz-adv-x="696" d="M641 866q-61 20 -117 21q-88 0 -139 -48t-63 -122v-717h-164v1024h114l31 -125h8q39 70 93.5 107.5t138.5 37.5q59 0 133 -20zM422 1126h-76l-235 373h160l79 -135l44 -119l45 119l92 135h143z" />
<glyph unicode="&#x15a;" horiz-adv-x="1087" d="M821 365q0 86 -51 140t-128 96t-167 79t-167 89t-128 129t-51 196q0 168 116.5 266t332.5 98q125 0 227 -18.5t160 -46.5l-52 -150q-47 23 -138 43.5t-206 20.5q-135 0 -202.5 -60.5t-67.5 -142.5q0 -80 51 -133t128 -95t167 -83t167 -95.5t128 -130t51 -188.5 q0 -92 -32.5 -166t-96 -127t-154 -82t-204.5 -29q-154 0 -254 24t-156 52l58 154q47 -27 139 -52.5t207 -25.5q68 0 127 13.5t102 43t68.5 75t25.5 106.5zM709 1782h233v-43l-334 -199h-141z" />
<glyph unicode="&#x15b;" horiz-adv-x="862" d="M608 279q0 61 -36.5 96t-91 58.5t-119 45t-119 55t-91 87t-36.5 143.5q0 147 84 216t233 69q111 0 185.5 -19.5t130.5 -46.5l-39 -135q-47 23 -114 40t-142 17q-90 0 -132 -30.5t-42 -106.5q0 -53 36.5 -83t91 -53.5t119 -46t118.5 -59.5t91 -93t37 -148 q0 -66 -21.5 -123.5t-66.5 -98t-111.5 -64.5t-156.5 -24q-117 0 -199 22.5t-137 53.5l49 139q47 -27 123 -49t154 -22q88 0 145 35t57 125zM484 1475h182v-43l-207 -263h-96z" />
<glyph unicode="&#x15c;" horiz-adv-x="1087" d="M821 365q0 86 -51 140t-128 96t-167 79t-167 89t-128 129t-51 196q0 168 116.5 266t332.5 98q125 0 227 -18.5t160 -46.5l-52 -150q-47 23 -138 43.5t-206 20.5q-135 0 -202.5 -60.5t-67.5 -142.5q0 -80 51 -133t128 -95t167 -83t167 -95.5t128 -130t51 -188.5 q0 -92 -32.5 -166t-96 -127t-154 -82t-204.5 -29q-154 0 -254 24t-156 52l58 154q47 -27 139 -52.5t207 -25.5q68 0 127 13.5t102 43t68.5 75t25.5 106.5zM516 1782h123l260 -209v-43h-166l-123 100l-34 72l-39 -70l-131 -102h-162v45z" />
<glyph unicode="&#x15d;" horiz-adv-x="862" d="M608 279q0 61 -36.5 96t-91 58.5t-119 45t-119 55t-91 87t-36.5 143.5q0 147 84 216t233 69q111 0 185.5 -19.5t130.5 -46.5l-39 -135q-47 23 -114 40t-142 17q-90 0 -132 -30.5t-42 -106.5q0 -53 36.5 -83t91 -53.5t119 -46t118.5 -59.5t91 -93t37 -148 q0 -66 -21.5 -123.5t-66.5 -98t-111.5 -64.5t-156.5 -24q-117 0 -199 22.5t-137 53.5l49 139q47 -27 123 -49t154 -22q88 0 145 35t57 125zM412 1499h65l228 -373h-148l-80 136l-43 118l-45 -118l-92 -136h-137z" />
<glyph unicode="&#x15e;" horiz-adv-x="1087" d="M821 365q0 86 -51 140t-128 96t-167 79t-167 89t-128 129t-51 196q0 168 116.5 266t332.5 98q125 0 227 -18.5t160 -46.5l-52 -150q-47 23 -138 43.5t-206 20.5q-135 0 -202.5 -60.5t-67.5 -142.5q0 -80 51 -133t128 -95t167 -83t167 -95.5t128 -130t51 -188.5 q0 -162 -100 -266.5t-281 -128.5l-39 -72q86 -16 124 -53t38 -101q0 -80 -65.5 -132t-184.5 -52q-23 0 -45 2t-47 6l19 80q12 -2 22 -2h21q45 0 70.5 8t38.5 19.5t16.5 26t3.5 26.5q0 57 -176 76l83 159q-147 2 -244.5 25t-150.5 51l58 154q47 -27 139 -52.5t207 -25.5 q68 0 127 13.5t102 43t68.5 75t25.5 106.5z" />
<glyph unicode="&#x15f;" horiz-adv-x="862" d="M608 279q0 61 -36.5 96t-91 58.5t-119 45t-119 55t-91 87t-36.5 143.5q0 147 84 216t233 69q111 0 185.5 -19.5t130.5 -46.5l-39 -133q-47 23 -114 39t-142 16q-90 0 -132 -30.5t-42 -106.5q0 -53 36.5 -83t91 -53.5t119 -46t118.5 -59.5t91 -93t37 -148 q0 -121 -71.5 -205t-219.5 -100l-37 -68q86 -16 124 -53t38 -101q0 -80 -65.5 -132t-184.5 -52q-23 0 -45 2t-47 6l19 80q12 -2 22 -2h21q45 0 70.5 8t39 19.5t16.5 26t3 26.5q0 57 -176 76l86 161q-96 4 -166 25t-119 49l49 137q47 -25 123 -46t154 -21q88 0 145 34t57 124 z" />
<glyph unicode="&#x160;" horiz-adv-x="1087" d="M821 365q0 86 -51 140t-128 96t-167 79t-167 89t-128 129t-51 196q0 168 116.5 266t332.5 98q125 0 227 -18.5t160 -46.5l-52 -150q-47 23 -138 43.5t-206 20.5q-135 0 -202.5 -60.5t-67.5 -142.5q0 -80 51 -133t128 -95t167 -83t167 -95.5t128 -130t51 -188.5 q0 -92 -32.5 -166t-96 -127t-154 -82t-204.5 -29q-154 0 -254 24t-156 52l58 154q47 -27 139 -52.5t207 -25.5q68 0 127 13.5t102 43t68.5 75t25.5 106.5zM660 1528h-119l-260 211v43h168l121 -103l34 -69l39 67l129 105h160v-45z" />
<glyph unicode="&#x161;" horiz-adv-x="862" d="M608 279q0 61 -36.5 96t-91 58.5t-119 45t-119 55t-91 87t-36.5 143.5q0 147 84 216t233 69q111 0 185.5 -19.5t130.5 -46.5l-39 -135q-47 23 -114 40t-142 17q-90 0 -132 -30.5t-42 -106.5q0 -53 36.5 -83t91 -53.5t119 -46t118.5 -59.5t91 -93t37 -148 q0 -66 -21.5 -123.5t-66.5 -98t-111.5 -64.5t-156.5 -24q-117 0 -199 22.5t-137 53.5l49 139q47 -27 123 -49t154 -22q88 0 145 35t57 125zM461 1126h-76l-235 373h160l79 -135l44 -119l45 119l92 135h143z" />
<glyph unicode="&#x162;" horiz-adv-x="1136" d="M1100 1282h-447v-1282h-170v1282h-446v152h1063v-152zM447 -209q0 43 31.5 69.5t72.5 26.5q51 0 91 -35.5t40 -117.5q0 -53 -18 -93t-44 -70t-53.5 -47.5t-47.5 -25.5l-58 66q41 23 65.5 57.5t24.5 83.5q-8 -2 -20 -2q-37 0 -60.5 24.5t-23.5 63.5z" />
<glyph unicode="&#x21a;" horiz-adv-x="1136" d="M1100 1282h-447v-1282h-170v1282h-446v152h1063v-152zM447 -209q0 43 31.5 69.5t72.5 26.5q51 0 91 -35.5t40 -117.5q0 -53 -18 -93t-44 -70t-53.5 -47.5t-47.5 -25.5l-58 66q41 23 65.5 57.5t24.5 83.5q-8 -2 -20 -2q-37 0 -60.5 24.5t-23.5 63.5z" />
<glyph unicode="&#x163;" horiz-adv-x="694" d="M23 1024h159v203l164 47v-250h279v-143h-279v-568q0 -106 26.5 -150t90.5 -44q53 0 90 11t82 30l37 -125q-55 -27 -121 -43.5t-141 -16.5q-125 0 -176.5 71t-51.5 237v598h-159v143zM266 -209q0 43 31.5 69.5t72.5 26.5q51 0 91 -35.5t40 -117.5q0 -53 -18 -93t-44 -70 t-53.5 -47.5t-47.5 -25.5l-58 66q41 23 65.5 57.5t24.5 83.5q-8 -2 -20 -2q-37 0 -60.5 24.5t-23.5 63.5z" />
<glyph unicode="&#x21b;" horiz-adv-x="694" d="M23 1024h159v203l164 47v-250h279v-143h-279v-568q0 -106 26.5 -150t90.5 -44q53 0 90 11t82 30l37 -125q-55 -27 -121 -43.5t-141 -16.5q-125 0 -176.5 71t-51.5 237v598h-159v143zM266 -209q0 43 31.5 69.5t72.5 26.5q51 0 91 -35.5t40 -117.5q0 -53 -18 -93t-44 -70 t-53.5 -47.5t-47.5 -25.5l-58 66q41 23 65.5 57.5t24.5 83.5q-8 -2 -20 -2q-37 0 -60.5 24.5t-23.5 63.5z" />
<glyph unicode="&#x164;" horiz-adv-x="1136" d="M1100 1282h-447v-1282h-170v1282h-446v152h1063v-152zM623 1528h-119l-260 211v43h168l121 -103l34 -69l39 67l129 105h160v-45z" />
<glyph unicode="&#x165;" horiz-adv-x="694" d="M23 1024h159v203l164 47v-250h279v-143h-279v-568q0 -106 26.5 -150t90.5 -44q53 0 90 11t82 30l37 -125q-55 -27 -121 -43.5t-141 -16.5q-125 0 -176.5 71t-51.5 237v598h-159v143zM639 1463q-4 -59 -24.5 -122t-46 -116t-52 -94t-45.5 -60l-67 37q35 74 53 167t18 188 h164z" />
<glyph unicode="&#x16a;" horiz-adv-x="1335" d="M997 1434h164v-957q0 -129 -33.5 -223t-96 -154.5t-150.5 -89t-195 -28.5q-254 0 -383 114.5t-129 347.5v990h170v-910q0 -109 21.5 -183.5t64.5 -120.5t107.5 -66.5t150.5 -20.5q166 0 237.5 91t71.5 300v910zM348 1726h647v-127h-647v127z" />
<glyph unicode="&#x16b;" horiz-adv-x="1103" d="M305 1024v-584q0 -80 9.5 -140t32 -100t61 -60.5t98.5 -20.5q55 0 98 17.5t77 48t59.5 70.5t41.5 85v684h164v-733q0 -74 5 -153t18 -138h-113l-41 162h-10q-47 -80 -127 -133.5t-203 -53.5q-82 0 -144.5 19.5t-104.5 69t-63.5 132.5t-21.5 210v618h164zM250 1317h606 v-127h-606v127z" />
<glyph unicode="&#x16c;" horiz-adv-x="1335" d="M997 1434h164v-957q0 -129 -33.5 -223t-96 -154.5t-150.5 -89t-195 -28.5q-254 0 -383 114.5t-129 347.5v990h170v-910q0 -109 21.5 -183.5t64.5 -120.5t107.5 -66.5t150.5 -20.5q166 0 237.5 91t71.5 300v910zM404 1784q35 -70 106.5 -108t167.5 -38q98 0 166 43t97 103 l81 -39q-18 -59 -52 -105.5t-80 -79t-101 -49t-113 -16.5q-55 0 -109.5 14.5t-101.5 43t-86 74.5t-63 108z" />
<glyph unicode="&#x16d;" horiz-adv-x="1103" d="M305 1024v-584q0 -80 9.5 -140t32 -100t61 -60.5t98.5 -20.5q55 0 98 17.5t77 48t59.5 70.5t41.5 85v684h164v-733q0 -74 5 -153t18 -138h-113l-41 162h-10q-47 -80 -127 -133.5t-203 -53.5q-82 0 -144.5 19.5t-104.5 69t-63.5 132.5t-21.5 210v618h164zM332 1475 q37 -74 98.5 -116t130.5 -42q70 0 126.5 41t91.5 117l86 -37q-6 -49 -32 -97.5t-66 -85t-93 -59t-115 -22.5q-57 0 -108 17t-93 51t-73 80t-45 105z" />
<glyph unicode="&#x16e;" horiz-adv-x="1335" d="M997 1434h164v-957q0 -129 -33.5 -223t-96 -154.5t-150.5 -89t-195 -28.5q-254 0 -383 114.5t-129 347.5v990h170v-910q0 -109 21.5 -183.5t64.5 -120.5t107.5 -66.5t150.5 -20.5q166 0 237.5 91t71.5 300v910zM461 1573q0 76 51 125t164 49q102 0 159.5 -44t57.5 -130 q0 -74 -54.5 -122t-162.5 -48q-104 0 -159.5 46t-55.5 124zM586 1573q0 -35 21.5 -58.5t68.5 -23.5q45 0 68.5 22.5t23.5 59.5q0 39 -22.5 62.5t-69.5 23.5q-45 0 -67.5 -23.5t-22.5 -62.5z" />
<glyph unicode="&#x16f;" horiz-adv-x="1103" d="M305 1024v-584q0 -80 9.5 -140t32 -100t61 -60.5t98.5 -20.5q55 0 98 17.5t77 48t59.5 70.5t41.5 85v684h164v-733q0 -74 5 -153t18 -138h-113l-41 162h-10q-47 -80 -127 -133.5t-203 -53.5q-82 0 -144.5 19.5t-104.5 69t-63.5 132.5t-21.5 210v618h164zM352 1317 q0 86 54 136t145 50q86 0 143 -45t57 -141q0 -80 -57 -132t-143 -52t-142.5 48t-56.5 136zM462 1317q0 -41 27 -63.5t62 -22.5q39 0 64.5 20.5t25.5 65.5t-28 66.5t-62 21.5q-35 0 -62 -20.5t-27 -67.5z" />
<glyph unicode="&#x170;" horiz-adv-x="1335" d="M997 1434h164v-957q0 -129 -33.5 -223t-96 -154.5t-150.5 -89t-195 -28.5q-254 0 -383 114.5t-129 347.5v990h170v-910q0 -109 21.5 -183.5t64.5 -120.5t107.5 -66.5t150.5 -20.5q166 0 237.5 91t71.5 300v910zM567 1741h190v-33l-204 -190h-117zM899 1741h202v-33 l-292 -190h-119z" />
<glyph unicode="&#x171;" horiz-adv-x="1103" d="M305 1024v-584q0 -80 9.5 -140t32 -100t61 -60.5t98.5 -20.5q55 0 98 17.5t77 48t59.5 70.5t41.5 85v684h164v-733q0 -74 5 -153t18 -138h-113l-41 162h-10q-47 -80 -127 -133.5t-203 -53.5q-82 0 -144.5 19.5t-104.5 69t-63.5 132.5t-21.5 210v618h164zM431 1434h159 v-33l-145 -232h-86zM730 1434h176v-33l-234 -232h-92z" />
<glyph unicode="&#x172;" horiz-adv-x="1335" d="M997 1434h164v-957q-4 -199 -77.5 -312.5t-206.5 -156.5q-61 -33 -94 -80t-33 -106q2 -43 28.5 -73t75.5 -32q43 0 84 19l23 -88q-29 -23 -78 -35t-97 -12q-92 0 -148 49t-56 133q0 61 32.5 112.5t90.5 86.5h-19q-254 0 -383 114.5t-129 347.5v990h170v-910 q0 -109 21.5 -183.5t64.5 -120.5t107.5 -66.5t150.5 -20.5q164 0 235.5 91t73.5 300v910z" />
<glyph unicode="&#x173;" horiz-adv-x="1103" d="M305 1024v-584q0 -80 9.5 -140t32 -100t61 -60.5t98.5 -20.5q55 0 98 17.5t77 48t59.5 70.5t41.5 85v684h164v-733q0 -74 5 -153t18 -138h-37q-61 -25 -95 -74t-30 -112q6 -43 31.5 -70t76.5 -27q39 0 80 19l23 -88q-31 -25 -81 -36t-93 -11q-90 0 -144.5 44t-60.5 130 q0 84 52 145.5t157 99.5l-35 142h-10q-45 -80 -128 -133.5t-200 -53.5q-82 0 -144.5 19.5t-104.5 69t-63.5 132.5t-21.5 210v618h164z" />
<glyph unicode="&#x178;" horiz-adv-x="1142" d="M489 569l-473 865h199l336 -627l35 -125h2l37 129l321 623h182l-469 -863v-571h-170v569zM273 1626q0 43 30.5 69.5t79.5 26.5q47 0 77 -26.5t30 -69.5q0 -41 -29.5 -67.5t-77.5 -26.5q-49 0 -79.5 26.5t-30.5 67.5zM666 1626q0 43 29.5 69.5t77.5 26.5q49 0 79.5 -26.5 t30.5 -69.5q0 -41 -30.5 -67.5t-79.5 -26.5q-47 0 -77 26.5t-30 67.5z" />
<glyph unicode="&#x179;" d="M78 154l723 1046l86 82h-809v152h962v-154l-727 -1053l-86 -75h813v-152h-962v154zM674 1782h233v-43l-334 -199h-141z" />
<glyph unicode="&#x17a;" horiz-adv-x="915" d="M86 143l473 652l86 86h-559v143h729v-143l-477 -658l-84 -80h561v-143h-729v143zM484 1475h182v-43l-207 -263h-96z" />
<glyph unicode="&#x17b;" d="M78 154l723 1046l86 82h-809v152h962v-154l-727 -1053l-86 -75h813v-152h-962v154zM432 1632q0 43 33.5 75t93.5 32q59 0 95 -32t36 -75q0 -47 -36 -77.5t-95 -30.5t-93 30.5t-34 77.5z" />
<glyph unicode="&#x17c;" horiz-adv-x="915" d="M86 143l473 652l86 86h-559v143h729v-143l-477 -658l-84 -80h561v-143h-729v143zM354 1335q0 47 31.5 81t81.5 34q49 0 83.5 -34t34.5 -81t-34.5 -77.5t-83.5 -30.5t-81 30.5t-32 77.5z" />
<glyph unicode="&#x17d;" d="M78 154l723 1046l86 82h-809v152h962v-154l-727 -1053l-86 -75h813v-152h-962v154zM586 1528h-119l-260 211v43h168l121 -103l34 -69l39 67l129 105h160v-45z" />
<glyph unicode="&#x17e;" horiz-adv-x="915" d="M86 143l473 652l86 86h-559v143h729v-143l-477 -658l-84 -80h561v-143h-729v143zM481 1126h-76l-235 373h160l79 -135l44 -119l45 119l92 135h143z" />
<glyph unicode="&#x17f;" horiz-adv-x="509" d="M45 1024h160v57q0 190 65.5 277.5t229.5 87.5q66 0 115 -8t104 -31l-37 -137q-47 20 -89 26.5t-79 6.5q-49 0 -78.5 -13.5t-44 -41t-18.5 -69.5t-4 -96v-1083h-164v883h-160v141z" />
<glyph unicode="&#x192;" d="M647 881l-162 -951q-12 -76 -34.5 -140t-60.5 -112.5t-93 -76t-131 -27.5q-59 0 -122.5 14.5t-113.5 34.5l43 135q47 -20 89 -30.5t92 -10.5q78 0 117.5 69t66.5 230l139 865h-174v143h197l22 137q25 152 89.5 224.5t211.5 72.5q68 0 132.5 -14t115.5 -37l-47 -133 q-98 41 -188 41q-39 0 -63.5 -11.5t-41 -35t-28 -63.5t-19.5 -97l-14 -84h245v-143h-268z" />
<glyph unicode="&#x1f4;" horiz-adv-x="1253" d="M657 715h482v-631q-33 -25 -79 -45.5t-98.5 -34.5t-108.5 -21.5t-110 -7.5q-137 0 -251.5 44t-198.5 135.5t-131 231.5t-47 331q0 199 57 340t149.5 230t207 130t229.5 41q123 0 202.5 -13t135.5 -36l-43 -149q-98 47 -281 47q-86 0 -171 -30t-152.5 -99.5t-110.5 -182 t-43 -278.5q0 -152 35 -262.5t97 -183t150.5 -108.5t192.5 -36q131 0 223 51v400l-336 40v97zM877 1782h233v-43l-334 -199h-141z" />
<glyph unicode="&#x1f5;" horiz-adv-x="1099" d="M942 -47q0 -199 -105.5 -293t-312.5 -94q-123 0 -197.5 15.5t-127.5 39.5l43 139q47 -18 104 -34.5t150 -16.5q86 0 140 15.5t87 51.5t45 92t12 134v98h-8q-41 -59 -104.5 -91t-165.5 -32q-207 0 -304.5 129.5t-97.5 401.5q0 262 125 398t369 136q117 0 200 -18t148 -43 v-1028zM530 121q104 0 164 52t84 163v524q-82 39 -209 39q-139 0 -219 -94t-80 -295q0 -86 14.5 -157.5t45 -123t79.5 -80t121 -28.5zM623 1475h182v-43l-207 -263h-96z" />
<glyph unicode="&#x218;" horiz-adv-x="1087" d="M821 365q0 86 -51 140t-128 96t-167 79t-167 89t-128 129t-51 196q0 168 116.5 266t332.5 98q125 0 227 -18.5t160 -46.5l-52 -150q-47 23 -138 43.5t-206 20.5q-135 0 -202.5 -60.5t-67.5 -142.5q0 -80 51 -133t128 -95t167 -83t167 -95.5t128 -130t51 -188.5 q0 -92 -32.5 -166t-96 -127t-154 -82t-204.5 -29q-154 0 -254 24t-156 52l58 154q47 -27 139 -52.5t207 -25.5q68 0 127 13.5t102 43t68.5 75t25.5 106.5zM416 -209q0 43 31.5 69.5t72.5 26.5q51 0 91 -35.5t40 -117.5q0 -53 -18 -93t-44 -70t-53.5 -47.5t-47.5 -25.5 l-58 66q41 23 65.5 57.5t24.5 83.5q-8 -2 -20 -2q-37 0 -60.5 24.5t-23.5 63.5z" />
<glyph unicode="&#x219;" horiz-adv-x="862" d="M608 279q0 61 -36.5 96t-91 58.5t-119 45t-119 55t-91 87t-36.5 143.5q0 147 84 216t233 69q111 0 185.5 -19.5t130.5 -46.5l-39 -135q-47 23 -114 40t-142 17q-90 0 -132 -30.5t-42 -106.5q0 -53 36.5 -83t91 -53.5t119 -46t118.5 -59.5t91 -93t37 -148 q0 -66 -21.5 -123.5t-66.5 -98t-111.5 -64.5t-156.5 -24q-117 0 -199 22.5t-137 53.5l49 139q47 -27 123 -49t154 -22q88 0 145 35t57 125zM316 -209q0 43 31.5 69.5t72.5 26.5q51 0 91 -35.5t40 -117.5q0 -53 -18 -93t-44 -70t-53.5 -47.5t-47.5 -25.5l-58 66 q41 23 65.5 57.5t24.5 83.5q-8 -2 -20 -2q-37 0 -60.5 24.5t-23.5 63.5z" />
<glyph unicode="&#x237;" horiz-adv-x="546" d="M190 1024h164v-1079q0 -190 -65.5 -284.5t-208.5 -94.5q-16 0 -30.5 1t-31.5 3v139q57 0 91 17.5t52.5 54.5t23.5 93t5 132v1018z" />
<glyph unicode="&#x2bc;" horiz-adv-x="397" d="M82 1350q0 47 29.5 73.5t76.5 26.5q57 0 93 -36t36 -107q0 -68 -19 -117t-47 -83t-58.5 -54.5t-53.5 -28.5l-51 70q47 25 73.5 61.5t26.5 95.5q-8 -2 -22 -2q-39 0 -61.5 28t-22.5 73z" />
<glyph unicode="&#x2c6;" horiz-adv-x="790" d="M375 1499h65l228 -373h-148l-80 136l-43 118l-45 -118l-92 -136h-137z" />
<glyph unicode="&#x2c7;" horiz-adv-x="808" d="M434 1126h-76l-235 373h160l79 -135l44 -119l45 119l92 135h143z" />
<glyph unicode="&#x2d8;" horiz-adv-x="870" d="M215 1475q37 -74 98.5 -116t130.5 -42q70 0 126.5 41t91.5 117l86 -37q-6 -49 -32 -97.5t-66 -85t-93 -59t-115 -22.5q-57 0 -108 17t-93 51t-73 80t-45 105z" />
<glyph unicode="&#x2d9;" horiz-adv-x="477" d="M123 1335q0 47 31.5 81t81.5 34q49 0 83.5 -34t34.5 -81t-34.5 -77.5t-83.5 -30.5t-81 30.5t-32 77.5z" />
<glyph unicode="&#x2da;" horiz-adv-x="645" d="M123 1317q0 86 54 136t145 50q86 0 143 -45t57 -141q0 -80 -57 -132t-143 -52t-142.5 48t-56.5 136zM233 1317q0 -41 27 -63.5t62 -22.5q39 0 64.5 20.5t25.5 65.5t-28 66.5t-62 21.5q-35 0 -62 -20.5t-27 -67.5z" />
<glyph unicode="&#x2db;" horiz-adv-x="624" d="M446 20q-72 -33 -112.5 -83t-40.5 -115q0 -41 26.5 -73t77.5 -32q39 0 82 21l23 -88q-31 -25 -82 -37t-94 -12q-92 0 -147.5 49t-55.5 133t56.5 143.5t154.5 93.5h112z" />
<glyph unicode="&#x2dc;" horiz-adv-x="817" d="M123 1343q59 68 108.5 93.5t90.5 25.5q35 0 64.5 -13t57 -28.5t53 -28t54.5 -12.5q45 0 94 50l49 -89q-53 -59 -97 -80.5t-81 -21.5q-33 0 -61.5 12.5t-56 27.5t-55.5 28.5t-56 13.5q-27 0 -54.5 -14.5t-62.5 -49.5z" />
<glyph unicode="&#x2dd;" horiz-adv-x="792" d="M195 1434h159v-33l-145 -232h-86zM494 1434h176v-33l-234 -232h-92z" />
<glyph unicode="&#x301;" horiz-adv-x="4" d="M-473 1475h182v-43l-207 -263h-96z" />
<glyph unicode="&#x394;" horiz-adv-x="1163" d="M29 0v76l520 1380h69l525 -1380v-76h-1114zM217 147h727l-317 826l-49 215h-3l-57 -219z" />
<glyph unicode="&#x2206;" horiz-adv-x="1163" d="M29 0v76l520 1380h69l525 -1380v-76h-1114zM217 147h727l-317 826l-49 215h-3l-57 -219z" />
<glyph unicode="&#x3a9;" horiz-adv-x="1642" d="M156 143h237l193 -20v53l-111 21q-66 31 -124 85t-101 126.5t-68.5 164t-25.5 197.5q0 160 47 287t133 216t209 137t274 48q160 0 284 -51t210 -143.5t130 -220.5t44 -281q0 -111 -28.5 -201t-75 -160.5t-102.5 -121t-112 -80.5l-116 -23v-53l196 20h238v-143h-588v256 q61 12 132 45t132.5 93.5t102.5 153.5t41 224q0 98 -28 193.5t-87 171t-152.5 123t-222.5 47.5q-231 0 -356 -136.5t-125 -404.5q0 -129 38 -220t97 -152.5t131 -94.5t139 -43v-256h-585v143z" />
<glyph unicode="&#x2126;" horiz-adv-x="1642" d="M156 143h237l193 -20v53l-111 21q-66 31 -124 85t-101 126.5t-68.5 164t-25.5 197.5q0 160 47 287t133 216t209 137t274 48q160 0 284 -51t210 -143.5t130 -220.5t44 -281q0 -111 -28.5 -201t-75 -160.5t-102.5 -121t-112 -80.5l-116 -23v-53l196 20h238v-143h-588v256 q61 12 132 45t132.5 93.5t102.5 153.5t41 224q0 98 -28 193.5t-87 171t-152.5 123t-222.5 47.5q-231 0 -356 -136.5t-125 -404.5q0 -129 38 -220t97 -152.5t131 -94.5t139 -43v-256h-585v143z" />
<glyph unicode="&#x3c0;" horiz-adv-x="1359" d="M1053 238q0 -57 18.5 -80t46.5 -23q20 0 46 4t44 8l39 -110q-33 -14 -81 -29.5t-109 -15.5q-102 0 -135 59.5t-33 165.5v664h-389v-881h-164v881h-29q-43 0 -69.5 -23.5t-55.5 -69.5l-108 66q39 78 96 124t166 46h887v-143h-170v-643z" />
<glyph unicode="&#x401;" horiz-adv-x="1097" d="M174 1434h780v-152h-610v-469h559v-151h-559v-510h621v-152h-791v1434zM246 1626q0 43 30.5 69.5t79.5 26.5q47 0 77 -26.5t30 -69.5q0 -41 -29.5 -67.5t-77.5 -26.5q-49 0 -79.5 26.5t-30.5 67.5zM639 1626q0 43 29.5 69.5t77.5 26.5q49 0 79.5 -26.5t30.5 -69.5 q0 -41 -30.5 -67.5t-79.5 -26.5q-47 0 -77 26.5t-30 67.5z" />
<glyph unicode="&#x402;" horiz-adv-x="1490" d="M653 0h-170v1282h-446v152h1063v-152h-447v-432q25 8 97.5 25.5t187.5 17.5q82 0 161 -19.5t140 -68.5t99 -132t38 -210q0 -246 -125 -362.5t-352 -116.5q-68 0 -97.5 1t-45.5 5v147q27 -4 58.5 -5t90.5 -1q291 0 291 320q0 86 -24.5 143t-66.5 91t-98.5 47t-121.5 13 q-37 0 -73 -5t-67.5 -12t-55.5 -15l-36 -13v-700z" />
<glyph unicode="&#x403;" horiz-adv-x="905" d="M942 1282h-598v-1282h-170v1434h768v-152zM646 1782h233v-43l-334 -199h-141z" />
<glyph unicode="&#x404;" horiz-adv-x="1193" d="M1114 59q-61 -47 -160.5 -65.5t-205.5 -18.5q-129 0 -244 44t-202 134.5t-137 230.5t-50 333q0 201 56 341t146.5 229t203 130t227.5 41q123 0 206.5 -13t139.5 -36l-41 -152q-47 23 -123 36.5t-168 13.5q-80 0 -157 -26t-141.5 -84t-108.5 -152.5t-58 -229.5h627v-151 h-629q6 -135 48 -235.5t108.5 -167t152.5 -100.5t182 -34q92 0 166 18.5t119 47.5z" />
<glyph unicode="&#x405;" horiz-adv-x="1087" d="M821 365q0 86 -51 140t-128 96t-167 79t-167 89t-128 129t-51 196q0 168 116.5 266t332.5 98q125 0 227 -18.5t160 -46.5l-52 -150q-47 23 -138 43.5t-206 20.5q-135 0 -202.5 -60.5t-67.5 -142.5q0 -80 51 -133t128 -95t167 -83t167 -95.5t128 -130t51 -188.5 q0 -92 -32.5 -166t-96 -127t-154 -82t-204.5 -29q-154 0 -254 24t-156 52l58 154q47 -27 139 -52.5t207 -25.5q68 0 127 13.5t102 43t68.5 75t25.5 106.5z" />
<glyph unicode="&#x406;" horiz-adv-x="595" d="M213 1434h170v-1434h-170v1434z" />
<glyph unicode="&#x407;" horiz-adv-x="600" d="M66 1624q0 45 29.5 71.5t74.5 26.5q43 0 72.5 -26.5t29.5 -71.5t-29.5 -70.5t-72.5 -25.5q-45 0 -74.5 25.5t-29.5 70.5zM330 1624q0 45 29.5 71.5t72.5 26.5q45 0 75 -26.5t30 -71.5t-30 -70.5t-75 -25.5q-43 0 -72.5 25.5t-29.5 70.5zM215 1434h170v-1434h-170v1434z " />
<glyph unicode="&#x408;" horiz-adv-x="595" d="M229 1434h170v-1119q0 -164 -72.5 -249.5t-220.5 -85.5q-16 0 -40.5 2t-49 6t-48 10t-38.5 14l33 146q57 -27 125 -27q86 0 113.5 60.5t27.5 164.5v1078z" />
<glyph unicode="&#x409;" horiz-adv-x="1896" d="M934 1282h-428q-20 -410 -54 -681t-102 -423q-45 -98 -106.5 -143t-132.5 -45q-37 0 -64 5t-51 15l22 148q20 -6 43 -6q35 0 69 22.5t67 83.5q29 55 54 147.5t44.5 233.5t32 336.5t18.5 458.5h758v-557q10 2 34.5 5t53.5 5l59 4q31 2 56 2q98 0 191 -19.5t166 -68.5 t118 -132t45 -210q0 -123 -43 -213t-119 -149.5t-177.5 -88t-219.5 -28.5q-29 0 -70 1t-87 4t-92 9t-85 16v1268zM1290 131q74 0 138.5 19.5t113.5 59.5t77 100.5t28 140.5q0 86 -31 143t-81 91t-115.5 47t-135.5 13q-18 0 -45 -2l-53 -4q-27 -2 -49.5 -6t-32.5 -6v-584 q29 -6 82 -9t104 -3z" />
<glyph unicode="&#x40a;" horiz-adv-x="1994" d="M1032 688h-688v-688h-170v1434h170v-594h688v594h170v-596q10 2 35 5t54 5l61 4q31 2 55 2q96 0 189.5 -16.5t166 -61.5t117.5 -125t45 -207q0 -123 -43 -211t-118.5 -143t-177 -80.5t-220.5 -25.5q-29 0 -70 1t-87 4t-92 9t-85 14v676zM1389 131q74 0 139 16.5 t113.5 53.5t76 93t27.5 136q0 86 -29.5 140.5t-80 85t-116 41t-137.5 10.5q-18 0 -45 -2l-53 -5q-27 -2 -49.5 -6t-32.5 -6v-545q29 -6 82.5 -9t104.5 -3z" />
<glyph unicode="&#x40b;" horiz-adv-x="1536" d="M653 0h-170v1282h-446v152h1063v-152h-447v-473q55 31 146.5 61.5t206.5 30.5q86 0 158.5 -19.5t123.5 -65.5t80 -124t29 -192v-500h-170v469q0 281 -254 281q-98 0 -182 -26t-138 -69v-655z" />
<glyph unicode="&#x40c;" horiz-adv-x="1249" d="M440 664h-96v-664h-170v1434h170v-668l92 29l482 639h196l-479 -617l-86 -67l104 -82l525 -668h-215zM699 1782h233v-43l-334 -199h-141z" />
<glyph unicode="&#x40e;" horiz-adv-x="1132" d="M578 678l53 -182h10l41 188l274 750h174l-362 -932q-55 -145 -97 -242.5t-85 -158t-92.5 -86t-120.5 -25.5q-68 0 -108 11t-75 34l52 141q41 -23 75.5 -29t63.5 -6q57 0 96 58.5t68 173.5l-531 1061h197zM412 1782q8 -76 57 -117t131 -41t130 41t59 115l145 -35 q-23 -111 -103.5 -175.5t-232.5 -64.5q-145 0 -238.5 56.5t-109.5 179.5z" />
<glyph unicode="&#x40f;" horiz-adv-x="1349" d="M174 0v1434h170v-1282h662v1282h170v-1434h-414l-31 -367h-106l-41 367h-410z" />
<glyph unicode="&#x410;" horiz-adv-x="1198" d="M856 397h-528l-144 -397h-168l543 1456h78l545 -1456h-178zM383 545h422l-160 436l-51 217h-2l-51 -221z" />
<glyph unicode="&#x411;" horiz-adv-x="1126" d="M174 1434h778v-152h-608v-430q35 6 86 12t98 6q104 0 198.5 -19.5t166.5 -66.5t114 -128t42 -203q0 -123 -43 -212t-115 -145.5t-167 -84t-200 -27.5q-35 0 -79 1t-92 5t-94 9t-85 15v1420zM545 131q66 0 125 18.5t103 54.5t69.5 91t25.5 129q0 94 -29.5 152.5t-78.5 91 t-113.5 44t-134.5 11.5q-18 0 -43 -2l-49 -4q-25 -2 -45.5 -5t-30.5 -5v-564q14 -4 38 -6t51.5 -4t55.5 -2h56z" />
<glyph unicode="&#x412;" horiz-adv-x="1196" d="M1038 1106q0 -51 -16 -104.5t-49 -99.5t-84 -81t-121 -53v-8q61 -10 117.5 -35t99.5 -68t69.5 -104t26.5 -145q0 -111 -46 -192t-120.5 -132t-171 -75.5t-196.5 -24.5h-82q-47 0 -98.5 3t-102.5 8t-90 15v1411q76 12 176.5 20.5t218.5 8.5q80 0 163 -13.5t150.5 -51 t111.5 -105.5t44 -174zM563 131q66 0 127.5 15.5t108.5 49t74.5 83t27.5 116.5q0 84 -33.5 135.5t-88 80t-122 38.5t-135.5 10h-178v-514q14 -4 41 -6t57.5 -4t63 -3t57.5 -1zM451 803q35 0 84 2t81 6q49 16 92.5 39.5t77 55.5t53 74t19.5 91q0 68 -25.5 112t-68.5 70.5 t-98.5 38t-112.5 11.5q-68 0 -124 -3.5t-85 -9.5v-487h107z" />
<glyph unicode="&#x413;" horiz-adv-x="905" d="M942 1282h-598v-1282h-170v1434h768v-152z" />
<glyph unicode="&#x414;" horiz-adv-x="1370" d="M1313 -264h-117l-31 264h-1005l-31 -264h-119v416h146q16 23 50 105.5t67.5 237t60 387t26.5 552.5h766v-1282h187v-416zM956 152v1130h-436q-6 -225 -23.5 -405.5t-42 -318.5t-55 -238.5t-63.5 -167.5h620z" />
<glyph unicode="&#x415;" horiz-adv-x="1097" d="M174 1434h780v-152h-610v-469h559v-151h-559v-510h621v-152h-791v1434z" />
<glyph unicode="&#x416;" horiz-adv-x="1650" d="M733 1434h164v-668l88 29l416 639h188l-413 -623l-82 -66l102 -83l457 -662h-209l-453 664h-94v-664h-164v688l-86 -29l-452 -659h-197l453 641l98 78l-94 72l-428 643h198l416 -643h92v643z" />
<glyph unicode="&#x417;" horiz-adv-x="1107" d="M285 678v143h32h45q27 0 54.5 2t53.5 3t42 5q53 8 100 28t82 50.5t55.5 71.5t20.5 90q0 68 -22.5 113t-62.5 72.5t-92 39t-112 11.5q-111 0 -188.5 -15.5t-124.5 -38.5l-45 136q41 23 147.5 46t239.5 23q82 0 161 -17.5t141 -57.5t100 -108.5t38 -168.5 q0 -102 -67.5 -195.5t-202.5 -134.5v-8q145 -20 229 -108.5t84 -235.5q0 -117 -46 -202t-120.5 -140t-172 -81t-197.5 -26q-135 0 -222.5 15.5t-144.5 38.5l43 153q47 -23 132 -39t206 -16q63 0 124.5 17.5t110 53t78 89t29.5 127.5q0 129 -90 189.5t-236 70.5q-25 2 -46 3 t-44 1h-112z" />
<glyph unicode="&#x418;" horiz-adv-x="1394" d="M1051 971l12 164h-8l-88 -168l-693 -967h-100v1434h170v-983l-14 -162h8l90 168l692 977h101v-1434h-170v971z" />
<glyph unicode="&#x419;" horiz-adv-x="1394" d="M1051 971l12 164h-8l-88 -168l-693 -967h-100v1434h170v-983l-14 -162h8l90 168l692 977h101v-1434h-170v971zM529 1782q8 -76 57 -117t131 -41t130 41t59 115l145 -35q-23 -111 -103.5 -175.5t-232.5 -64.5q-145 0 -238.5 56.5t-109.5 179.5z" />
<glyph unicode="&#x41a;" horiz-adv-x="1249" d="M440 664h-96v-664h-170v1434h170v-668l92 29l482 639h196l-479 -617l-86 -67l104 -82l525 -668h-215z" />
<glyph unicode="&#x41b;" horiz-adv-x="1277" d="M934 1282h-428q-20 -410 -54 -681t-102 -423q-45 -98 -106.5 -143t-132.5 -45q-37 0 -64 5t-51 15l22 148q20 -6 43 -6q35 0 69 22.5t67 83.5q29 55 54 147.5t44.5 233.5t32 336.5t18.5 458.5h758v-1434h-170v1282z" />
<glyph unicode="&#x41c;" horiz-adv-x="1619" d="M1276 963l20 215h-10l-78 -197l-372 -647h-52l-395 649l-74 195h-10l29 -213v-965h-160v1434h127l449 -734l67 -159h4l64 164l428 729h133v-1434h-170v963z" />
<glyph unicode="&#x41d;" horiz-adv-x="1376" d="M1032 657h-688v-657h-170v1434h170v-625h688v625h170v-1434h-170v657z" />
<glyph unicode="&#x41e;" horiz-adv-x="1400" d="M115 717q0 358 151.5 549.5t431.5 191.5q152 0 262.5 -53t183.5 -150.5t107.5 -233.5t34.5 -304q0 -358 -152.5 -550t-435.5 -192q-150 0 -259 53.5t-182 150.5t-107.5 233.5t-34.5 304.5zM295 717q0 -119 23.5 -225.5t72.5 -187.5t126 -129t181 -48q190 0 299 144.5 t109 445.5q0 117 -23.5 224.5t-74 188t-127 129t-183.5 48.5q-188 0 -295.5 -144.5t-107.5 -445.5z" />
<glyph unicode="&#x41f;" horiz-adv-x="1349" d="M1006 1282h-662v-1282h-170v1434h1002v-1434h-170v1282z" />
<glyph unicode="&#x420;" horiz-adv-x="1144" d="M174 1419q78 18 168 24.5t178 6.5q94 0 191.5 -18.5t177.5 -67.5t130 -135t50 -219q0 -131 -47 -221.5t-125 -146.5t-178.5 -80.5t-206.5 -24.5h-34q-24 0 -49.5 1t-50 3t-34.5 4v-545h-170v1419zM524 1303q-53 0 -102 -2.5t-78 -10.5v-594q10 -4 33 -5l47 -2 q25 -1 47 -1h33q70 0 138.5 13.5t123.5 48t89 98t34 162.5q0 84 -32 140t-84 90t-117.5 48.5t-131.5 14.5z" />
<glyph unicode="&#x421;" horiz-adv-x="1169" d="M1092 59q-61 -47 -155.5 -65.5t-201.5 -18.5q-129 0 -241.5 44t-196.5 134.5t-133 230.5t-49 333q0 201 54 341t143 229t200 130t225 41q123 0 201 -13t133 -36l-41 -149q-98 47 -280 47q-84 0 -166 -31t-146.5 -100.5t-103.5 -182t-39 -276.5q0 -147 37 -258 t101.5 -184.5t151.5 -110.5t189 -37q92 0 161 18.5t116 47.5z" />
<glyph unicode="&#x422;" horiz-adv-x="1136" d="M1100 1282h-447v-1282h-170v1282h-446v152h1063v-152z" />
<glyph unicode="&#x423;" horiz-adv-x="1132" d="M578 678l53 -182h10l41 188l274 750h174l-362 -932q-55 -145 -97 -242.5t-85 -158t-92.5 -86t-120.5 -25.5q-68 0 -108 11t-75 34l52 141q41 -23 75.5 -29t63.5 -6q57 0 96 58.5t68 173.5l-531 1061h197z" />
<glyph unicode="&#x424;" horiz-adv-x="1597" d="M715 160q-35 -6 -81 -8t-87 -2q-96 0 -181 32.5t-147.5 102t-98.5 177t-36 255.5q0 139 36 248.5t102.5 185.5t158.5 116t205 40q27 0 66.5 -2t62.5 -7v177h168v-183q37 10 87 12.5t83 2.5q98 0 182 -36t146.5 -106.5t97 -178t34.5 -249.5q0 -145 -39.5 -255.5 t-107.5 -184.5t-158 -110.5t-192 -36.5q-23 0 -67 3t-66 11v-205h-168v201zM1028 1163q-29 0 -74 -2t-73 -12v-850q20 -4 54 -5t66 -1q70 0 130.5 26.5t106.5 82t72.5 139.5t26.5 196q0 94 -21.5 173t-61.5 136.5t-97 87t-129 29.5zM578 293h27q17 0 38 1t40 4t34 7v850 q-25 4 -60.5 6t-64.5 2q-70 0 -130.5 -27.5t-105.5 -84t-70.5 -140.5t-25.5 -194q0 -98 22.5 -177t64.5 -134.5t100.5 -84t130.5 -28.5z" />
<glyph unicode="&#x425;" horiz-adv-x="1265" d="M530 729l-436 705h205l291 -486l51 -117l49 117l307 486h189l-451 -691l471 -743h-198l-324 514l-55 123l-54 -123l-331 -514h-191z" />
<glyph unicode="&#x426;" horiz-adv-x="1406" d="M1350 -264h-117l-31 264h-1028v1434h170v-1282h645v1282h170v-1282h191v-416z" />
<glyph unicode="&#x427;" horiz-adv-x="1239" d="M324 1434v-476q0 -281 254 -280q96 0 180 25.5t137 68.5v662h170v-1434h-170v618q-55 -31 -145.5 -61.5t-206.5 -30.5q-86 0 -158 19.5t-123 65.5t-79.5 124t-28.5 193v506h170z" />
<glyph unicode="&#x428;" horiz-adv-x="1796" d="M174 0v1434h170v-1282h469v1282h170v-1282h469v1282h170v-1434h-1448z" />
<glyph unicode="&#x429;" horiz-adv-x="1869" d="M174 0v1434h170v-1282h469v1282h170v-1282h469v1282h170v-1282h190v-416h-118l-31 264h-1489z" />
<glyph unicode="&#x42a;" horiz-adv-x="1290" d="M326 1282h-328v152h498v-557q10 2 34.5 5t54.5 5l60 4q31 2 55 2q96 0 189.5 -19.5t167 -68.5t119 -132t45.5 -210q0 -123 -43 -213t-119 -149.5t-177.5 -88t-219.5 -28.5q-29 0 -70 1t-87 4t-93 9t-86 16v1268zM684 131q74 0 138.5 19.5t112.5 59.5t76.5 100.5 t28.5 140.5q0 86 -30.5 143t-81.5 91t-117 47t-135 13q-18 0 -45 -2l-53 -4q-27 -2 -49.5 -6t-32.5 -6v-584q29 -6 82 -9t106 -3z" />
<glyph unicode="&#x42b;" horiz-adv-x="1574" d="M1231 1434h170v-1434h-170v1434zM174 1434h170v-557q10 2 30.5 5t45.5 5l50 4q26 2 50 2q96 0 187.5 -19.5t161 -68.5t111.5 -132t42 -210q0 -123 -39 -214t-109.5 -149.5t-169 -87t-217.5 -28.5q-29 0 -66.5 1t-79.5 4t-85 9t-82 16v1420zM502 131q147 0 243.5 80 t96.5 240q0 86 -29 143t-77 91t-110.5 47t-131.5 13q-37 0 -82 -6t-68 -12v-584q56 -12 158 -12z" />
<glyph unicode="&#x42c;" horiz-adv-x="1136" d="M174 1434h170v-557q10 2 34.5 5t53.5 5l60 4q31 2 55 2q98 0 191 -19.5t166 -68.5t118 -132t45 -210q0 -123 -43 -213t-119 -149.5t-177 -88t-220 -28.5q-29 0 -70 1t-87 4t-92 9t-85 16v1420zM530 131q74 0 138.5 19.5t113.5 59.5t77 100.5t28 140.5q0 86 -31 143 t-81 91t-115.5 47t-135.5 13q-18 0 -45 -2l-53 -4q-27 -2 -49.5 -6t-32.5 -6v-584q29 -6 82 -9t104 -3z" />
<glyph unicode="&#x42d;" horiz-adv-x="1181" d="M307 809h590q-10 125 -49 220t-100.5 157.5t-142.5 91.5t-175 29q-96 0 -171 -16.5t-122 -45.5l-45 133q63 37 157.5 58.5t201.5 21.5q131 0 243.5 -41t195.5 -130t130 -230.5t47 -339.5q0 -201 -53 -342.5t-144.5 -230.5t-211 -129t-250.5 -40q-102 0 -181.5 14.5 t-134.5 37.5l45 149q47 -23 123 -36t158 -13t165 25.5t150.5 89t112.5 166t53 249.5h-592v152z" />
<glyph unicode="&#x42e;" horiz-adv-x="1828" d="M344 809h254q16 313 157.5 481t403.5 168q150 0 256.5 -53t172 -150.5t96 -233.5t30.5 -304q0 -358 -137 -550t-418 -192q-141 0 -245.5 48.5t-173 137.5t-103.5 215t-41 281h-252v-657h-170v1434h170v-625zM776 717q0 -119 20.5 -225.5t65.5 -187.5t118 -129t179 -48 q190 0 282.5 143.5t92.5 446.5q0 117 -18.5 224.5t-62.5 188t-115.5 129t-178.5 48.5q-190 0 -286.5 -144.5t-96.5 -445.5z" />
<glyph unicode="&#x42f;" horiz-adv-x="1165" d="M991 0h-170v625l-211 -45l-356 -580h-201l320 510l125 88q-74 16 -136.5 50t-108.5 86t-71.5 122t-25.5 160q0 125 42 208t114.5 133t170 71.5t205.5 21.5q70 0 148.5 -6t154.5 -25v-1419zM680 1303q-68 0 -129.5 -13.5t-109.5 -46.5t-76.5 -88t-28.5 -139 q0 -78 27.5 -133.5t74.5 -91t109.5 -52t134.5 -16.5h139v567q-29 6 -59.5 9.5t-81.5 3.5z" />
<glyph unicode="&#x430;" horiz-adv-x="1015" d="M141 948q78 47 181.5 69.5t216.5 22.5q106 0 170.5 -28.5t98.5 -74.5t45 -101.5t11 -110.5q0 -123 -6 -239.5t-6 -221.5q0 -76 6 -143.5t23 -124.5h-121l-43 143h-10q-18 -29 -46 -56.5t-67 -49t-90 -35.5t-117 -14t-122 20.5t-97 58t-64.5 91t-23.5 120.5q0 90 37 150.5 t103.5 96.5t159.5 51.5t206 15.5h56q28 0 56 -4q6 61 7 110q0 113 -45.5 158t-163.5 45q-35 0 -75 -5t-82 -14.5t-80 -22.5t-66 -30zM432 127q57 0 102.5 15.5t78 39t54 52t31.5 55.5v170q-29 2 -58.5 3t-57.5 1q-63 0 -124 -7t-107 -26.5t-73.5 -53.5t-27.5 -85 q0 -72 51 -118t131 -46z" />
<glyph unicode="&#x431;" horiz-adv-x="1097" d="M252 842q68 98 149.5 138t204.5 40q188 0 289.5 -123t101.5 -362q0 -276 -117.5 -418t-328.5 -142q-225 0 -338 156t-113 490q0 176 17.5 301t51.5 211t82 137t108.5 80.5t132 42t153.5 20.5q106 10 166.5 23.5t97.5 48.5l19 -148q-20 -18 -45 -30.5t-60 -20.5t-83 -14 t-111 -10q-88 -6 -154.5 -21.5t-115 -59.5t-76 -125t-37.5 -214h6zM270 510q0 -78 16.5 -149.5t50.5 -126t87 -85t125 -30.5q141 0 209.5 101.5t68.5 299.5q0 78 -14 143.5t-45 113.5t-78 74t-112 26q-160 2 -234 -93.5t-74 -273.5z" />
<glyph unicode="&#x432;" horiz-adv-x="1021" d="M158 1022q72 4 150.5 10t195.5 6q203 0 291 -62.5t88 -189.5q0 -72 -42 -140t-139 -101v-8q121 -23 170.5 -84.5t49.5 -163.5q0 -160 -115 -231.5t-344 -71.5q-86 0 -160 5t-145 11v1020zM322 137q39 -4 76.5 -6t88.5 -2q137 0 204 39t67 133q0 74 -56.5 120t-199.5 46 h-180v-330zM522 592q37 0 72 12t62.5 33.5t45 50.5t17.5 62q0 82 -49 113.5t-172 31.5q-66 0 -104 -2l-72 -4v-297h200z" />
<glyph unicode="&#x433;" horiz-adv-x="755" d="M756 881h-434v-881h-164v1024h598v-143z" />
<glyph unicode="&#x434;" horiz-adv-x="1107" d="M1063 -260h-111l-30 260h-770l-31 -260h-111v403h121q16 23 43 81.5t52.5 164t45 262t23.5 373.5h618v-881h150v-403zM750 143v738h-308q-4 -86 -14 -187.5t-27.5 -203t-44 -191.5t-61.5 -156h455z" />
<glyph unicode="&#x435;" horiz-adv-x="1040" d="M905 82q-61 -49 -154.5 -78t-197.5 -29q-117 0 -203 38t-141 109t-82 169t-27 221q0 262 117 399.5t334 137.5q70 0 139.5 -15.5t124.5 -58.5t90 -122t35 -208q0 -68 -12 -149h-658q0 -90 18.5 -160t57.5 -118t101.5 -73.5t152.5 -25.5q70 0 139.5 24.5t104.5 57.5z M553 905q-121 0 -193.5 -63.5t-87.5 -216.5h508q0 156 -59 218t-168 62z" />
<glyph unicode="&#x436;" horiz-adv-x="1349" d="M492 453l-302 -453h-188l324 469l69 61l-104 78l-266 416h174l282 -442h107v442h160v-463l96 29l284 434h172l-278 -416l-80 -65l105 -82l303 -461h-195l-301 461h-106v-461h-160v481z" />
<glyph unicode="&#x437;" horiz-adv-x="903" d="M256 457v133h143q37 0 73 12t64.5 33.5t46 51.5t17.5 63q0 80 -55.5 112.5t-165.5 32.5q-80 0 -146.5 -24.5t-103.5 -47.5l-47 127q61 35 144 61.5t198 26.5q340 0 340 -252q0 -72 -46 -140t-132 -97v-8q121 -23 169 -86.5t48 -167.5q0 -66 -26.5 -121t-80 -96 t-134.5 -64.5t-187 -23.5q-104 0 -173 18t-124 45l47 135q47 -27 113.5 -41t144.5 -14q125 0 190.5 43t65.5 131q0 74 -61.5 116t-202.5 42h-119z" />
<glyph unicode="&#x438;" horiz-adv-x="1118" d="M797 606l6 127h-6l-84 -131l-461 -602h-94v1024h164v-625l-7 -120h9l79 127l461 618h97v-1024h-164v606z" />
<glyph unicode="&#x439;" horiz-adv-x="1118" d="M797 606l6 127h-6l-84 -131l-461 -602h-94v1024h164v-625l-7 -120h9l79 127l461 618h97v-1024h-164v606zM393 1438q20 -94 70.5 -131t116.5 -37t116.5 39t69.5 127l123 -39q-18 -119 -105.5 -182.5t-208.5 -63.5q-55 0 -109 14.5t-97 43t-74 73.5t-41 107z" />
<glyph unicode="&#x43a;" horiz-adv-x="978" d="M416 461h-94v-461h-164v1024h164v-463l88 29l327 434h178l-317 -412l-86 -67l106 -82l343 -463h-203z" />
<glyph unicode="&#x43b;" horiz-adv-x="1030" d="M709 881h-297l-12.5 -185.5t-18.5 -199t-32.5 -190.5t-52.5 -160.5t-78 -111.5t-109 -42q-39 0 -68 4t-51 14l24 137q25 -8 54 -8q41 0 73.5 35t57 132t41 269.5t22.5 448.5h610v-1024h-163v881z" />
<glyph unicode="&#x43c;" horiz-adv-x="1320" d="M1004 608l12 195h-10l-74 -158l-248 -401h-57l-258 401l-68 158h-8l16 -193v-610h-151v1024h161l287 -459l60 -119h4l61 123l268 455h164v-1024h-159v608z" />
<glyph unicode="&#x43d;" horiz-adv-x="1105" d="M784 453h-462v-453h-164v1024h164v-428h462v428h164v-1024h-164v453z" />
<glyph unicode="&#x43e;" horiz-adv-x="1097" d="M100 512q0 260 116 398.5t333 138.5q115 0 200 -38t140 -109t81.5 -170t26.5 -220q0 -260 -115.5 -398.5t-332.5 -138.5q-115 0 -200 38t-140 109t-82 170t-27 220zM270 512q0 -78 15.5 -149.5t48.5 -125t86 -86t129 -32.5h3q276 0 275 393q0 80 -15 151.5t-48 125 t-86 85t-129 31.5h-3q-276 0 -276 -393z" />
<glyph unicode="&#x43f;" horiz-adv-x="1095" d="M774 881h-452v-881h-164v1024h780v-1024h-164v881z" />
<glyph unicode="&#x440;" horiz-adv-x="1107" d="M158 1024h112l31 -123h8q47 72 122 110t171 38q205 0 305.5 -121t100.5 -396q0 -129 -34 -232t-95.5 -175t-148.5 -111t-193 -39q-76 0 -120 9.5t-95 31.5v-426h-164v1434zM571 905q-104 0 -164.5 -54t-84.5 -165v-508q37 -29 84 -44t124 -15q141 0 224.5 105.5 t83.5 310.5q0 84 -14.5 152.5t-46.5 116.5t-82 74.5t-124 26.5z" />
<glyph unicode="&#x441;" horiz-adv-x="923" d="M856 68q-61 -45 -145 -69t-176 -24q-119 0 -201 38t-134.5 109t-76 170t-23.5 220q0 260 115 398.5t330 138.5q98 0 166.5 -15.5t124.5 -44.5l-48 -141q-47 27 -104 42t-123 15q-291 0 -291 -393q0 -78 15.5 -148.5t51.5 -125t94 -87t144 -32.5q74 0 132.5 22.5 t95.5 51.5z" />
<glyph unicode="&#x442;" horiz-adv-x="813" d="M809 881h-320v-881h-163v881h-320v143h803v-143z" />
<glyph unicode="&#x443;" horiz-adv-x="954" d="M459 360l57 -196h10l45 198l199 662h166l-303 -920l-69 -194q-34 -94 -74.5 -168t-92 -118t-118.5 -44q-74 0 -121 21l28 141q27 -10 52 -10q57 0 110 60.5t88 207.5l-411 1024h188z" />
<glyph unicode="&#x444;" horiz-adv-x="1392" d="M618 -8q-35 -12 -72.5 -14.5t-68.5 -2.5q-186 0 -286.5 131.5t-100.5 405.5q0 262 110.5 395t319.5 133q57 0 98 -8v402h156v-404q37 6 65.5 8t55.5 2q203 0 305.5 -117.5t102.5 -390.5q0 -129 -28 -232t-81 -175t-130 -111t-177 -39q-18 0 -54 3.5t-59 11.5v-400h-156 v402zM864 905q-25 0 -44 -1t-48 -9v-778q20 -4 46 -5t56 -1q131 0 198 108.5t67 312.5q0 174 -60.5 273.5t-214.5 99.5zM518 111q25 0 49.5 2t53.5 8v776q-25 4 -46.5 6t-52.5 2q-127 0 -197.5 -95t-70.5 -298q0 -86 15.5 -159.5t48 -128t82.5 -84t118 -29.5z" />
<glyph unicode="&#x445;" horiz-adv-x="1054" d="M426 524l-344 500h201l194 -283l58 -116l59 116l199 283h184l-346 -492l366 -532h-194l-217 311l-62 123l-63 -123l-221 -311h-183z" />
<glyph unicode="&#x446;" horiz-adv-x="1122" d="M1077 -260h-110l-31 260h-778v1024h164v-881h444v881h164v-881h147v-403z" />
<glyph unicode="&#x447;" horiz-adv-x="1003" d="M264 1024v-279q0 -55 6 -99t24.5 -75.5t53.5 -49t92 -17.5q92 0 151.5 20.5t90.5 44.5v455h164v-1024h-164v430q-33 -20 -97.5 -45t-176.5 -25q-76 0 -133.5 16.5t-96.5 57.5t-58.5 108.5t-19.5 170.5v311h164z" />
<glyph unicode="&#x448;" horiz-adv-x="1507" d="M158 0v1024h164v-881h350v881h164v-881h350v881h164v-1024h-1192z" />
<glyph unicode="&#x449;" horiz-adv-x="1542" d="M1497 -266h-111l-30 266h-1198v1024h164v-881h350v881h164v-881h350v881h164v-881h147v-409z" />
<glyph unicode="&#x44a;" horiz-adv-x="1017" d="M391 143q80 -12 144 -12q129 0 190 50t61 143q0 82 -59 135t-186 53q-35 0 -74 -2t-76 -12v-355zM391 633q49 8 93 11t85 3q106 0 180 -23.5t120 -64.5t66.5 -97t20.5 -120q0 -186 -111.5 -270t-346.5 -84q-68 0 -133.5 3t-137.5 9v881h-225v143h389v-391z" />
<glyph unicode="&#x44b;" horiz-adv-x="1351" d="M322 143q76 -12 145 -12q129 0 180 50t51 143q0 82 -50 135t-175 53q-35 0 -76 -2t-75 -12v-355zM322 633q49 8 94 11t86 3q104 0 175 -23.5t114 -64.5t60 -97t17 -120q0 -186 -103 -270t-335 -84q-131 0 -272 12v1024h164v-391zM1030 1024h164v-1024h-164v1024z" />
<glyph unicode="&#x44c;" horiz-adv-x="950" d="M322 143q76 -12 145 -12q129 0 190.5 50t61.5 143q0 82 -59.5 135t-186.5 53q-35 0 -76 -2t-75 -12v-355zM322 633q49 8 94 11t86 3q106 0 180 -23.5t120 -64.5t66.5 -97t20.5 -120q0 -186 -111.5 -270t-347.5 -84q-131 0 -272 12v1024h164v-391z" />
<glyph unicode="&#x44d;" horiz-adv-x="952" d="M248 584h434q-10 145 -85 233t-212 88q-84 0 -146.5 -22.5t-101.5 -48.5l-57 124q63 43 145 67t191 24q227 0 331.5 -141.5t104.5 -395.5q0 -262 -121 -399.5t-336 -137.5q-96 0 -177 15.5t-136 46.5l47 139q47 -27 115.5 -42t134.5 -15q287 -2 305 330h-436v135z" />
<glyph unicode="&#x44e;" horiz-adv-x="1472" d="M952 -25q-111 0 -189.5 34t-128.5 96.5t-76 151.5t-32 196h-204v-453h-164v1024h164v-428h206q16 219 120 336t308 117q113 0 192 -38t129 -109t72.5 -170t22.5 -220q0 -260 -103.5 -398.5t-316.5 -138.5zM688 512q0 -80 12.5 -151.5t43 -126t83 -85t129.5 -30.5 q131 0 188.5 95t57.5 298q0 80 -11 151.5t-40 126t-76 85t-121 30.5q-141 0 -203.5 -95t-62.5 -298z" />
<glyph unicode="&#x44f;" horiz-adv-x="972" d="M668 424l-158 -25l-270 -399h-199l246 350l82 76q-106 16 -181 86t-75 188q0 92 31.5 158t91 109t141.5 62.5t184 19.5q76 0 141.5 -10.5t128.5 -22.5v-1016h-163v424zM668 885q-27 10 -60 15t-57 5q-131 0 -199.5 -47t-68.5 -149q0 -92 72.5 -142.5t191.5 -50.5h6h16 q12 0 35 1t64 3v365z" />
<glyph unicode="&#x451;" horiz-adv-x="1040" d="M905 82q-61 -49 -154.5 -78t-197.5 -29q-117 0 -203 38t-141 109t-82 169t-27 221q0 262 117 399.5t334 137.5q70 0 139.5 -15.5t124.5 -58.5t90 -122t35 -208q0 -68 -12 -149h-658q0 -90 18.5 -160t57.5 -118t101.5 -73.5t152.5 -25.5q70 0 139.5 24.5t104.5 57.5z M553 905q-121 0 -193.5 -63.5t-87.5 -216.5h508q0 156 -59 218t-168 62zM244 1298q0 47 27.5 76t72.5 29t73 -29t28 -76q0 -43 -28 -71.5t-73 -28.5t-72.5 28.5t-27.5 71.5zM637 1298q0 47 27.5 76t72.5 29q47 0 75 -29t28 -76q0 -43 -27.5 -71.5t-75.5 -28.5 q-45 0 -72.5 28.5t-27.5 71.5z" />
<glyph unicode="&#x452;" horiz-adv-x="1122" d="M-4 1024h164v410h164v-410h327v-123h-327v-303h8q53 63 128 101t185 38q86 0 149.5 -19.5t105.5 -68.5t61.5 -132t19.5 -210v-362q0 -190 -65.5 -284.5t-208.5 -94.5q-16 0 -30.5 1t-31.5 3v139q57 0 91 17.5t52.5 53.5t23.5 91t5 129v270q0 80 -9 141.5t-33.5 101.5 t-66.5 60.5t-110 20.5q-96 0 -174 -62.5t-100 -160.5v-371h-164v901h-164v123z" />
<glyph unicode="&#x453;" horiz-adv-x="755" d="M756 881h-434v-881h-164v1024h598v-143zM492 1475h182v-43l-207 -263h-96z" />
<glyph unicode="&#x454;" horiz-adv-x="966" d="M897 68q-61 -45 -149.5 -69t-180.5 -24q-119 0 -206 38t-145 109t-87 170t-29 220q0 129 35 229.5t97.5 168t150.5 103.5t195 36q98 0 171.5 -15.5t129.5 -44.5l-48 -141q-47 27 -109.5 42t-127.5 15q-141 2 -226 -79t-102 -240h484v-135h-486q6 -68 29.5 -129.5 t65.5 -106.5t103.5 -70.5t147.5 -25.5q72 0 134.5 22.5t99.5 51.5z" />
<glyph unicode="&#x455;" horiz-adv-x="862" d="M608 279q0 61 -36.5 96t-91 58.5t-119 45t-119 55t-91 87t-36.5 143.5q0 147 84 216t233 69q111 0 185.5 -19.5t130.5 -46.5l-39 -135q-47 23 -114 40t-142 17q-90 0 -132 -30.5t-42 -106.5q0 -53 36.5 -83t91 -53.5t119 -46t118.5 -59.5t91 -93t37 -148 q0 -66 -21.5 -123.5t-66.5 -98t-111.5 -64.5t-156.5 -24q-117 0 -199 22.5t-137 53.5l49 139q47 -27 123 -49t154 -22q88 0 145 35t57 125z" />
<glyph unicode="&#x456;" horiz-adv-x="548" d="M193 1024h163v-1024h-163v1024zM158 1335q0 47 31.5 81t80.5 34t84 -34t35 -81t-35 -77.5t-84 -30.5t-80.5 30.5t-31.5 77.5z" />
<glyph unicode="&#x457;" horiz-adv-x="569" d="M59 1296q0 47 26 75t73 28q45 0 71.5 -28t26.5 -75q0 -43 -26.5 -71.5t-71.5 -28.5q-47 0 -73 28.5t-26 71.5zM315 1296q0 47 26 75t71 28q47 0 73.5 -28t26.5 -75q0 -43 -26.5 -71.5t-73.5 -28.5q-45 0 -71 28.5t-26 71.5zM201 1024h164v-1024h-164v1024z" />
<glyph unicode="&#x458;" horiz-adv-x="546" d="M190 1024h164v-1079q0 -190 -65.5 -284.5t-208.5 -94.5q-16 0 -30.5 1t-31.5 3v139q57 0 91 17.5t52.5 54.5t23.5 93t5 132v1018zM156 1335q0 47 31.5 81t80.5 34t84 -34t35 -81t-35 -77.5t-84 -30.5t-80.5 30.5t-31.5 77.5z" />
<glyph unicode="&#x459;" horiz-adv-x="1501" d="M872 633q49 8 94.5 11t86.5 3q106 0 180 -23.5t120 -64.5t66.5 -97t20.5 -120q0 -186 -111.5 -270t-347.5 -84q-131 0 -272 12v881h-297l-12.5 -185.5t-18.5 -199t-32.5 -190.5t-52.5 -160.5t-78 -111.5t-109 -42q-39 0 -68 4t-51 14l24 137q25 -8 54 -8q41 0 73.5 35 t57 132t41 269.5t22.5 448.5h610v-391zM872 141q76 -12 146 -12q129 0 190.5 51t61.5 144q0 82 -59.5 135t-186.5 53q-35 0 -76 -2t-76 -12v-357z" />
<glyph unicode="&#x45a;" horiz-adv-x="1576" d="M948 143q76 -12 146 -12q129 0 190.5 50t61.5 143q0 82 -59.5 135t-186.5 53q-35 0 -75 -3t-77 -11v-355zM948 633q49 8 94 11t86 3q106 0 180 -23.5t120.5 -64.5t67 -97t20.5 -120q0 -186 -112 -270t-347 -84q-131 0 -273 12v457h-462v-457h-164v1024h164v-424h462v424 h164v-391z" />
<glyph unicode="&#x45b;" horiz-adv-x="1122" d="M-4 1024h164v410h164v-410h327v-123h-327v-303h8q53 63 128 101t185 38q86 0 149.5 -19.5t105.5 -68.5t61.5 -132t19.5 -210v-307h-164v270q0 80 -9 141.5t-33.5 101.5t-66.5 60.5t-110 20.5q-96 0 -174 -62.5t-100 -160.5v-371h-164v901h-164v123z" />
<glyph unicode="&#x45c;" horiz-adv-x="978" d="M416 461h-94v-461h-164v1024h164v-463l88 29l327 434h178l-317 -412l-86 -67l106 -82l343 -463h-203zM525 1475h182v-43l-207 -263h-96z" />
<glyph unicode="&#x45e;" horiz-adv-x="954" d="M459 360l57 -196h10l45 198l199 662h166l-303 -920l-69 -194q-34 -94 -74.5 -168t-92 -118t-118.5 -44q-74 0 -121 21l28 141q27 -10 52 -10q57 0 110 60.5t88 207.5l-411 1024h188zM321 1438q20 -94 70.5 -131t116.5 -37t116.5 39t69.5 127l123 -39 q-18 -119 -105.5 -182.5t-208.5 -63.5q-55 0 -109 14.5t-97 43t-74 73.5t-41 107z" />
<glyph unicode="&#x45f;" horiz-adv-x="1095" d="M158 0v1024h164v-881h452v881h164v-1024h-299l-31 -367h-106l-41 367h-303z" />
<glyph unicode="&#x462;" horiz-adv-x="1267" d="M0 1270h305v207h170v-207h424v-144h-424v-252q10 2 35 5.5t53 5.5l60 4q31 2 55 2q98 0 191.5 -19.5t166 -67.5t117.5 -131t45 -210q0 -123 -43 -213t-118.5 -149.5t-177 -88t-220.5 -28.5q-29 0 -70 1t-87 4t-92 9t-85 16v1112h-305v144zM662 131q74 0 138 19.5 t113.5 59.5t77 100.5t27.5 140.5q0 86 -31 143t-81 90t-115.5 46t-135.5 13q-18 0 -45 -2l-53 -4q-27 -2 -49.5 -6t-32.5 -6v-582q29 -6 82.5 -9t104.5 -3z" />
<glyph unicode="&#x463;" horiz-adv-x="1017" d="M2 1024h223v410h164v-410h328v-135h-328v-256q49 8 94 11t86 3q106 0 180 -23.5t120 -64.5t66.5 -97t20.5 -120q0 -186 -111.5 -270t-346.5 -84q-131 0 -273 12v889h-223v135zM389 143q80 -12 146 -12q129 0 190 50t61 143q0 82 -59 135t-186 53q-35 0 -75 -2t-77 -12 v-355z" />
<glyph unicode="&#x472;" horiz-adv-x="1400" d="M115 717q0 358 151.5 549.5t431.5 191.5q152 0 262.5 -53t183.5 -150.5t107.5 -233.5t34.5 -304q0 -358 -152.5 -550t-435.5 -192q-150 0 -259 53.5t-182 150.5t-107.5 233.5t-34.5 304.5zM1106 803q-16 244 -128 374t-280 130q-74 0 -143.5 -26t-124.5 -85t-91 -155.5 t-44 -237.5h811zM295 651q16 -264 128 -394t275 -130q76 0 148 24.5t127 85t91 161t42 253.5h-811z" />
<glyph unicode="&#x473;" horiz-adv-x="1097" d="M100 512q0 260 116 398.5t333 138.5q115 0 200 -38t140 -109t81.5 -170t26.5 -220q0 -260 -115.5 -398.5t-332.5 -138.5q-115 0 -200 38t-140 109t-82 170t-27 220zM827 575q-16 174 -88.5 252t-189.5 78q-53 0 -101.5 -16.5t-86 -55t-62.5 -102t-29 -156.5h557zM270 444 q10 -160 88 -242.5t191 -82.5q51 0 99 16.5t86 53t62.5 99t30.5 156.5h-557z" />
<glyph unicode="&#x474;" horiz-adv-x="1224" d="M623 -23h-76l-551 1457h184l365 -985l49 -218h4l33 222l81 271l85 284q47 160 89 249t85 131t88 51t98 9q72 0 113 -11.5t76 -33.5l-50 -143q-41 23 -76.5 29.5t-64.5 6.5q-57 0 -96 -53t-80 -178z" />
<glyph unicode="&#x475;" horiz-adv-x="1038" d="M535 -23h-70l-445 1047h189l246 -600l57 -195h2l51 199l46 117l27 67l13 35q4 10 8 19q33 88 62 156.5t62.5 116.5t77.5 73.5t106 25.5q37 0 65.5 -4t52.5 -14l-24 -152q-18 8 -35.5 13.5t-34.5 5.5q-35 0 -69.5 -31t-75.5 -127z" />
<glyph unicode="&#x48a;" horiz-adv-x="1413" d="M1051 971l12 164h-8l-88 -168l-693 -967h-100v1434h170v-983l-14 -162h8l90 168l692 977h101v-1291h213v-45l-187 -364h-110l92 266h-178v971zM524 1782q8 -76 57.5 -117t131.5 -41t130 41t58 115l146 -35q-23 -111 -104 -175.5t-232 -64.5q-145 0 -238.5 56.5 t-110.5 179.5z" />
<glyph unicode="&#x48b;" horiz-adv-x="1148" d="M797 606l6 127h-6l-84 -131l-461 -602h-94v1024h164v-625l-7 -120h9l79 127l461 618h97v-881h204v-45l-186 -364h-111l93 266h-164v606zM393 1438q20 -94 70.5 -131t116.5 -37t117 39t69 127l123 -39q-18 -119 -105.5 -182.5t-208.5 -63.5q-55 0 -109 14.5t-97 43 t-74 73.5t-41 107z" />
<glyph unicode="&#x48c;" horiz-adv-x="1148" d="M0 1434h186v163h170v-163h299v-127h-299v-430q10 2 35 5t53 5l60 4q31 2 55 2q98 0 191.5 -19.5t166 -68.5t117.5 -132t45 -210q0 -123 -43 -213t-118.5 -149.5t-177 -88t-220.5 -28.5q-29 0 -69.5 1t-87 4t-92.5 9t-85 16v1293h-186v127zM543 131q74 0 138 19.5 t113.5 59.5t77 100.5t27.5 140.5q0 86 -30.5 143t-81 91t-116 47t-134.5 13q-18 0 -45 -2l-54 -4q-27 -2 -49 -6l-33 -6v-584q29 -6 82.5 -9t104.5 -3z" />
<glyph unicode="&#x48d;" horiz-adv-x="1017" d="M2 1024h223v410h164v-410h328v-135h-328v-256q49 8 94 11t86 3q106 0 180 -23.5t120 -64.5t66.5 -97t20.5 -120q0 -186 -111.5 -270t-346.5 -84q-131 0 -273 12v889h-223v135zM389 143q80 -12 146 -12q129 0 190 50t61 143q0 82 -59 135t-186 53q-35 0 -75 -2t-77 -12 v-355z" />
<glyph unicode="&#x48e;" horiz-adv-x="1144" d="M174 1419q78 18 168 24.5t178 6.5q94 0 191.5 -18.5t177.5 -67.5t130 -135t50 -219q0 -154 -64.5 -252.5t-166.5 -151.5l139 -200l-94 -68l-158 225q-98 -27 -213 -26h-34q-24 0 -49.5 1t-50 3t-34.5 4v-545h-170v1419zM596 946l145 -211q66 35 107 99.5t41 175.5 q0 84 -32 140t-84 90t-117.5 48.5t-131.5 14.5q-53 0 -102 -2.5t-78 -10.5v-594q10 -4 33 -5l47 -2q25 -1 47 -1h33q35 0 67.5 2t67.5 10l-131 191z" />
<glyph unicode="&#x48f;" horiz-adv-x="1107" d="M158 1024h112l31 -123h8q47 72 122 110t171 38q205 0 305.5 -121t100.5 -396q0 -154 -45 -268t-129 -186l108 -127l-86 -76l-121 141q-88 -41 -198 -41q-76 0 -120 9.5t-95 31.5v-426h-164v1434zM608 334l119 -141q53 53 82 138t29 204q0 84 -14.5 152.5t-46.5 117.5 t-82 74.5t-124 25.5q-104 0 -164.5 -54t-84.5 -165v-510q37 -29 84 -43t124 -14q63 -2 111 18l-113 133z" />
<glyph unicode="&#x490;" horiz-adv-x="905" d="M942 1282h-598v-1282h-170v1434h621l32 274h115v-426z" />
<glyph unicode="&#x491;" horiz-adv-x="755" d="M322 881v-881h-164v1024h450l33 274h115v-417h-434z" />
<glyph unicode="&#x492;" horiz-adv-x="987" d="M985 1282h-598v-494h440v-135h-440v-653h-170v653h-197v135h197v646h768v-152z" />
<glyph unicode="&#x493;" horiz-adv-x="788" d="M782 881h-434v-310h346v-122h-346v-449h-164v449h-184v122h184v453h598v-143z" />
<glyph unicode="&#x494;" horiz-adv-x="1181" d="M344 0h-170v1434h768v-152h-598v-555q25 8 97.5 25.5t185.5 17.5q82 0 160.5 -22.5t141 -78t100.5 -150.5t38 -240q0 -281 -124 -411t-353 -130q-68 0 -97.5 1t-46.5 5v152q27 -4 59 -5.5t91 -1.5q291 0 291 375q0 104 -24.5 173t-66.5 111t-98.5 58.5t-122.5 16.5 q-37 0 -72.5 -5.5t-67.5 -12.5t-55 -15l-36 -12v-578z" />
<glyph unicode="&#x495;" horiz-adv-x="1095" d="M322 0h-164v1024h596v-143h-432v-365q23 10 84 26.5t172 16.5q82 0 155.5 -23.5t129 -78t88 -143.5t32.5 -222q0 -268 -107.5 -394t-336.5 -126q-68 0 -97.5 1t-46.5 5v143q27 -4 58.5 -5t91.5 -1q143 0 208.5 93.5t65.5 263.5q0 182 -80 263t-207 81q-74 0 -131 -16.5 t-79 -26.5v-373z" />
<glyph unicode="&#x496;" horiz-adv-x="1677" d="M733 1434h164v-668l88 29l416 639h188l-413 -623l-82 -66l102 -83l352 -510h119v-416h-119l-30 264h-74l-453 664h-94v-664h-164v688l-86 -29l-452 -659h-197l453 641l98 78l-94 72l-428 643h198l416 -643h92v643z" />
<glyph unicode="&#x497;" horiz-adv-x="1419" d="M492 453l-302 -453h-188l324 469l69 61l-104 78l-266 416h174l282 -442h107v442h160v-463l96 29l284 434h172l-278 -416l-80 -65l105 -82l208 -318h154v-403h-111l-30 260h-113l-301 461h-106v-461h-160v481z" />
<glyph unicode="&#x498;" horiz-adv-x="1107" d="M285 678v143h32h45q27 0 54.5 2t53.5 3t42 5q53 8 100 28t82 50.5t55.5 71.5t20.5 90q0 68 -22.5 113t-62.5 72.5t-92 39t-112 11.5q-111 0 -188.5 -15.5t-124.5 -38.5l-45 136q41 23 147.5 46t239.5 23q82 0 161 -17.5t141 -57.5t100 -108.5t38 -168.5 q0 -102 -67.5 -195.5t-202.5 -134.5v-8q145 -20 229 -108.5t84 -235.5q0 -106 -37.5 -185t-100 -133.5t-145.5 -86t-173 -39.5l-29 -347h-107l-39 344q-94 4 -159.5 18.5t-112.5 33.5l43 153q47 -23 132 -38t206 -15q63 0 124.5 17.5t110 52t78 88t29.5 127.5 q0 129 -90 189.5t-236 70.5q-25 2 -46 3t-44 1h-112z" />
<glyph unicode="&#x499;" horiz-adv-x="903" d="M256 457v133h143q37 0 73 12t64.5 33.5t46 51.5t17.5 63q0 80 -55.5 112.5t-165.5 32.5q-80 0 -146.5 -24.5t-103.5 -47.5l-47 127q61 35 144 61.5t198 26.5q340 0 340 -252q0 -72 -46 -140t-132 -97v-8q121 -23 169 -86.5t48 -167.5q0 -111 -77 -192t-232 -105l-29 -357 h-107l-39 351q-82 4 -138 21.5t-103 39.5l47 135q47 -27 113.5 -41t144.5 -14q125 0 190.5 43t65.5 131q0 74 -61.5 116t-202.5 42h-119z" />
<glyph unicode="&#x49a;" horiz-adv-x="1259" d="M440 664h-96v-664h-170v1434h170v-668l92 29l482 639h196l-479 -617l-86 -67l104 -82l406 -516h182v-416h-119l-30 264h-129z" />
<glyph unicode="&#x49b;" horiz-adv-x="1036" d="M416 461h-94v-461h-164v1024h164v-463l88 29l327 434h178l-317 -412l-86 -67l106 -82l236 -320h162v-403h-111l-31 260h-116z" />
<glyph unicode="&#x49c;" horiz-adv-x="1402" d="M455 664h-111v-664h-170v1434h170v-668l111 10v258h135v-243l47 4l438 639h195l-443 -617l-84 -67l103 -82l485 -668h-213l-475 664h-53v-265h-135v265z" />
<glyph unicode="&#x49d;" horiz-adv-x="1107" d="M420 461h-98v-461h-164v1024h164v-463l98 10v252h129v-239l53 6l268 434h172l-258 -412l-90 -67l107 -82l282 -463h-192l-283 461h-59v-260h-129v260z" />
<glyph unicode="&#x49e;" horiz-adv-x="1359" d="M0 1303h285v131h170v-131h250v-136h-250v-401l100 29l475 639h195l-473 -617l-90 -67l106 -82l520 -668h-217l-516 664h-100v-664h-170v1163h-285v140z" />
<glyph unicode="&#x49f;" horiz-adv-x="985" d="M-4 1255h166v179h164v-179h325v-122h-325v-572l84 29l317 434h191l-314 -412l-84 -67l103 -82l342 -463h-203l-342 461h-94v-461h-164v1133h-166v122z" />
<glyph unicode="&#x4a0;" horiz-adv-x="1402" d="M330 1282h-330v152h500v-668l90 29l481 639h199l-482 -617l-83 -67l102 -82l526 -668h-217l-522 664h-94v-664h-170v1282z" />
<glyph unicode="&#x4a1;" horiz-adv-x="1048" d="M391 561l86 29l330 434h176l-317 -412l-84 -67l106 -82l342 -463h-203l-342 461h-94v-461h-164v881h-225v143h389v-463z" />
<glyph unicode="&#x4a2;" horiz-adv-x="1447" d="M1032 657h-688v-657h-170v1434h170v-625h688v625h170v-1282h189v-416h-119l-31 264h-209v657z" />
<glyph unicode="&#x4a3;" horiz-adv-x="1118" d="M784 453h-462v-453h-164v1024h164v-428h462v428h164v-881h150v-403h-111l-31 260h-172v453z" />
<glyph unicode="&#x4a4;" horiz-adv-x="1763" d="M1800 1282h-598v-1282h-170v657h-688v-657h-170v1434h170v-625h688v625h768v-152z" />
<glyph unicode="&#x4a5;" horiz-adv-x="1382" d="M1382 881h-434v-881h-164v453h-462v-453h-164v1024h164v-428h462v428h598v-143z" />
<glyph unicode="&#x4a6;" horiz-adv-x="2013" d="M1176 0h-170v1282h-662v-1282h-170v1434h1002v-707q23 8 96.5 25.5t185.5 17.5q82 0 162 -22.5t142.5 -78t100.5 -150.5t38 -240q0 -281 -125 -411t-355 -130q-68 0 -97.5 1t-45.5 5v152q27 -4 58.5 -5.5t90.5 -1.5q143 0 218 93.5t75 281.5q0 104 -24.5 173t-66.5 111 t-99 58.5t-121 16.5q-37 0 -74 -5.5t-68.5 -12.5t-56 -15t-34.5 -12v-578z" />
<glyph unicode="&#x4a7;" horiz-adv-x="1712" d="M938 0h-164v881h-452v-881h-164v1024h780v-508q23 10 84 26.5t172 16.5q80 0 152.5 -23.5t129 -78t89 -143.5t32.5 -222q0 -268 -106.5 -394t-335.5 -126q-68 0 -97.5 1t-45.5 5v143q27 -4 58.5 -5t90.5 -1q143 0 208 93.5t65 263.5q0 182 -79 263t-206 81 q-74 0 -131 -16.5t-80 -26.5v-373z" />
<glyph unicode="&#x4a8;" horiz-adv-x="1660" d="M723 1307q-96 0 -174 -36t-135.5 -108.5t-88 -183.5t-30.5 -260q0 -121 35 -229.5t97 -190.5t148.5 -131t190.5 -49q23 0 50.5 2t47.5 10q-66 39 -117 104.5t-86.5 146.5t-55 173t-19.5 186q0 160 36.5 281t100 204t149.5 125t187 42q227 0 344 -153t117 -425 q0 -127 -26 -235.5t-70 -197.5t-102 -154.5t-124 -104.5q10 -2 22 -2h21q78 0 137.5 16.5t98.5 44.5l51 -133q-39 -31 -96.5 -52.5t-165.5 -21.5q-66 0 -131.5 16.5t-110.5 45.5q-53 -31 -119.5 -46.5t-138.5 -15.5q-152 0 -272.5 53.5t-204.5 149.5t-129 233.5t-45 305.5 q0 178 42 316t119.5 232.5t191.5 143.5t255 49v-151zM766 725q0 -72 17.5 -150.5t51 -153.5t85 -138.5t120.5 -102.5q55 31 108.5 87.5t95.5 136t68.5 180t26.5 219.5q0 92 -15 172t-47 139.5t-84 93t-126 33.5q-59 0 -113.5 -29.5t-95.5 -92t-66.5 -161t-25.5 -233.5z" />
<glyph unicode="&#x4a9;" horiz-adv-x="1351" d="M551 905q-281 -2 -281 -391q0 -80 19.5 -151.5t60.5 -127t101.5 -86t144.5 -30.5q23 0 52.5 4t49.5 16q-74 45 -125 147.5t-51 231.5q0 90 17.5 180t59.5 163t113.5 118t180.5 45q94 0 160.5 -35t108.5 -94t61.5 -139t19.5 -172q0 -82 -20.5 -156t-54 -134.5 t-77.5 -104.5t-90 -64q31 -14 78 -14q41 0 84 15t78 52l51 -123q-37 -35 -99.5 -57.5t-135.5 -22.5q-57 0 -115.5 18.5t-95.5 55.5q-61 -43 -135 -58.5t-140 -15.5q-113 0 -200.5 38t-147 109t-91.5 170t-32 220q0 256 114 395.5t337 141.5v-144zM692 524q0 -117 46 -214 t124 -150q43 20 81 60t66.5 95.5t46 123t17.5 145.5q0 55 -11 108t-33.5 95t-56.5 68t-81 26q-61 0 -100 -31t-60.5 -81t-30 -114.5t-8.5 -130.5z" />
<glyph unicode="&#x4aa;" horiz-adv-x="1169" d="M1092 59q-53 -41 -129 -59t-164 -23l-29 -344h-106l-39 353q-109 16 -202 67t-161.5 141.5t-107.5 220.5t-39 302q0 201 54 341t143 229t200 130t225 41q123 0 201 -13t133 -36l-41 -149q-98 47 -280 47q-84 0 -166 -31t-146.5 -100.5t-103.5 -182t-39 -276.5 q0 -147 37 -258t101.5 -184.5t151.5 -109.5t189 -36q92 0 161 17.5t116 46.5z" />
<glyph unicode="&#x4ab;" horiz-adv-x="923" d="M856 68q-90 -66 -223 -84l-29 -351h-106l-39 347q-98 12 -166 55t-111 111.5t-62.5 161.5t-19.5 204q0 260 115 398.5t330 138.5q98 0 166.5 -15.5t124.5 -44.5l-48 -141q-47 27 -104 42t-123 15q-291 0 -291 -393q0 -78 15.5 -148.5t51.5 -125t94 -87t144 -32.5 q74 0 132.5 22.5t95.5 51.5z" />
<glyph unicode="&#x4ac;" horiz-adv-x="1136" d="M483 1282h-446v152h1063v-152h-447v-1130h189v-416h-119l-31 264h-209v1282z" />
<glyph unicode="&#x4ad;" horiz-adv-x="813" d="M326 881h-322v143h805v-143h-320v-738h152v-403h-111l-30 260h-174v881z" />
<glyph unicode="&#x4ae;" horiz-adv-x="1142" d="M489 569l-473 865h199l336 -627l35 -125h2l37 129l321 623h182l-469 -863v-571h-170v569z" />
<glyph unicode="&#x4af;" horiz-adv-x="991" d="M20 1024h189l250 -664l57 -217h2l51 222l226 659h176l-383 -1024v-410h-164v410z" />
<glyph unicode="&#x4b0;" horiz-adv-x="1142" d="M182 584h299l-465 850h199l336 -627l35 -125h2l37 129l321 623h182l-460 -850h299v-127h-308v-457h-170v457h-307v127z" />
<glyph unicode="&#x4b1;" horiz-adv-x="991" d="M172 0h252l-404 1024h189l250 -664l57 -217h2l51 222l226 659h176l-383 -1024h239v-123h-239v-287h-164v287h-252v123z" />
<glyph unicode="&#x4b2;" horiz-adv-x="1327" d="M530 729l-436 705h205l291 -486l51 -117l49 117l307 486h189l-451 -691l375 -591h199v-416h-119l-31 264h-151l-324 514l-55 123l-54 -123l-331 -514h-191z" />
<glyph unicode="&#x4b3;" horiz-adv-x="1075" d="M426 524l-344 500h201l194 -283l58 -116l59 116l199 283h184l-346 -492l268 -389h156v-403h-111l-31 260h-110l-217 311l-62 123l-63 -123l-221 -311h-183z" />
<glyph unicode="&#x4b4;" horiz-adv-x="1716" d="M1657 -264h-117l-31 264h-1026v1282h-446v152h989v-152h-373v-1130h645v1282h170v-1282h189v-416z" />
<glyph unicode="&#x4b5;" horiz-adv-x="1290" d="M1243 -260h-110l-31 260h-778v881h-320v143h791v-143h-308v-738h445v881h164v-881h147v-403z" />
<glyph unicode="&#x4b6;" horiz-adv-x="1308" d="M895 618q-55 -31 -145.5 -61.5t-206.5 -30.5q-86 0 -158 19.5t-123 65.5t-79.5 124t-28.5 193v506h170v-476q0 -281 254 -280q96 0 180 25.5t137 68.5v662h170v-1282h188v-416h-118l-31 264h-209v618z" />
<glyph unicode="&#x4b7;" horiz-adv-x="1042" d="M682 430q-33 -20 -97.5 -45t-176.5 -25q-76 0 -133.5 16.5t-96.5 57.5t-58.5 108.5t-19.5 170.5v311h164v-279q0 -55 6 -99t24.5 -76.5t53.5 -49t92 -16.5q92 0 151.5 20.5t90.5 44.5v455h164v-881h151v-403h-110l-31 260h-174v430z" />
<glyph unicode="&#x4b8;" horiz-adv-x="1255" d="M555 526q-92 0 -167 19.5t-127 65.5t-79.5 124t-27.5 193v506h170v-476q0 -268 231 -280v254h135v-246q66 10 123 32.5t98 53.5v662h170v-1434h-170v618q-39 -23 -95 -43t-126 -34v-244h-135v229z" />
<glyph unicode="&#x4b9;" horiz-adv-x="1017" d="M420 360q-80 0 -140.5 16.5t-100.5 57.5t-59.5 108.5t-19.5 170.5v311h164v-279q0 -51 5 -94t21.5 -74.5t47.5 -50t82 -22.5v260h129v-252q53 10 90 25.5t57 31.5v455h164v-1024h-164v430q-20 -14 -57 -30.5t-90 -26.5v-234h-129v221z" />
<glyph unicode="&#x4ba;" horiz-adv-x="1239" d="M918 0v475q0 281 -254 281q-98 0 -182.5 -25.5t-137.5 -68.5v-662h-170v1434h170v-619q55 31 146.5 61.5t205.5 30.5q86 0 159 -19.5t124 -65.5t79.5 -123.5t28.5 -192.5v-506h-169z" />
<glyph unicode="&#x4bb;" horiz-adv-x="1120" d="M815 0v584q0 80 -9 140t-33.5 100t-66.5 60.5t-110 20.5q-96 0 -174 -62.5t-100 -160.5v-682h-164v1434h164v-525h8q53 63 127.5 101.5t185.5 38.5q86 0 149.5 -19.5t105.5 -69t61.5 -132.5t19.5 -210v-618h-164z" />
<glyph unicode="&#x4bc;" horiz-adv-x="1585" d="M561 651q16 -268 133 -396t340 -128q92 0 171 27.5t130 58.5l45 -137q-66 -41 -159 -71t-220 -30q-135 0 -244.5 39t-189.5 122t-126 210t-52 305h-76q-172 0 -241.5 71t-69.5 181q0 59 15.5 95t41.5 63h160q-33 -27 -45 -68t-12 -71q0 -25 6 -48.5t24.5 -42t53.5 -29.5 t92 -11h24q12 0 27 2q14 319 157.5 492t405.5 173q256 0 387 -153.5t131 -434.5q0 -102 -18 -219h-891zM1292 795q4 29 6 55.5t2 52.5q0 82 -20 156t-62 131t-108 91t-156 34q-190 0 -287.5 -137.5t-107.5 -382.5h733z" />
<glyph unicode="&#x4bd;" horiz-adv-x="1263" d="M1128 82q-61 -49 -154 -78t-198 -29q-115 0 -199.5 37t-140 104.5t-83 163t-29.5 214.5h-25q-74 0 -127 19t-88 52t-51.5 78t-16.5 96q0 61 20.5 104.5t63.5 86.5h160q-41 -29 -68.5 -72t-27.5 -108q0 -23 7 -44.5t23.5 -39t44 -28.5t68.5 -11q14 0 23 2 q25 205 138.5 312.5t305.5 107.5q70 0 139.5 -15.5t125 -58.5t90 -122t34.5 -208q0 -68 -12 -149h-657q0 -90 18 -160t57 -119t101.5 -73.5t152.5 -24.5q70 0 139.5 24.5t104.5 57.5zM776 905q-121 0 -193.5 -63.5t-86.5 -216.5h508q0 156 -59.5 218t-168.5 62z" />
<glyph unicode="&#x4be;" horiz-adv-x="1585" d="M561 651q16 -268 133 -396t340 -126q92 0 171 26.5t130 57.5l45 -137q-59 -37 -141 -65.5t-192 -33.5l-29 -344h-107l-39 353q-215 33 -343 193.5t-140 471.5h-76q-172 0 -241.5 71t-69.5 181q0 59 15.5 95t41.5 63h160q-33 -27 -45 -68t-12 -71q0 -25 6 -48.5t24.5 -42 t53.5 -29.5t92 -11h24q12 0 27 2q14 319 157.5 492t405.5 173q256 0 387 -153.5t131 -434.5q0 -102 -18 -219h-891zM1292 795q4 29 6 55.5t2 52.5q0 82 -20 156t-62 131t-108 91t-156 34q-190 0 -287.5 -137.5t-107.5 -382.5h733z" />
<glyph unicode="&#x4bf;" horiz-adv-x="1263" d="M1128 82q-51 -41 -120.5 -65.5t-151.5 -34.5l-29 -349h-106l-39 351q-182 29 -268 163t-90 347h-25q-74 0 -127 19t-88 52t-51.5 78t-16.5 96q0 66 20.5 107t63.5 84h160q-41 -29 -68.5 -72t-27.5 -108q0 -23 7 -44.5t23.5 -39t44 -28.5t68.5 -11q14 0 23 2 q25 205 138.5 312.5t305.5 107.5q70 0 139.5 -15.5t125 -58.5t90 -122t34.5 -208q0 -68 -12 -149h-657q0 -90 18 -160t57 -119t101.5 -74.5t152.5 -25.5q70 0 139.5 24.5t104.5 57.5zM776 905q-121 0 -193.5 -63.5t-86.5 -216.5h508q0 156 -59.5 218t-168.5 62z" />
<glyph unicode="&#x4c0;" horiz-adv-x="595" d="M213 1434h170v-1434h-170v1434z" />
<glyph unicode="&#x4c3;" horiz-adv-x="1228" d="M903 145q0 139 -27.5 237.5t-85 161t-144.5 91.5t-206 29h-96v-664h-170v1434h170v-668l92 29l482 639h196l-459 -586l-116 -78h129q109 -25 185.5 -70t125.5 -117.5t71.5 -178t22.5 -252.5v-37q0 -147 -27.5 -252t-80 -170.5t-126 -95t-165.5 -29.5h-28q-13 0 -30 2v149 q82 0 136.5 22.5t88 73t48 131t14.5 199.5z" />
<glyph unicode="&#x4c4;" horiz-adv-x="985" d="M739 33q0 215 -86 312t-237 97h-94v-442h-164v1024h164v-481l88 28l327 453h178l-319 -430l-74 -53l90 -13q92 -20 148.5 -69t88.5 -116t43 -147.5t11 -162.5q0 -125 -27.5 -214t-75.5 -146.5t-115 -84t-144 -26.5h-34q-17 0 -36 4v141q10 -2 18 -2h19q111 0 171 84 t60 244z" />
<glyph unicode="&#x4c5;" horiz-adv-x="1273" d="M934 1282h-428q-20 -410 -54 -681t-102 -423q-45 -98 -106.5 -143t-132.5 -45q-37 0 -64 5t-51 15l22 148q20 -6 43 -6q35 0 69 22.5t67 83.5q29 55 54 147.5t44.5 233.5t32 336.5t18.5 458.5h758v-1291h190v-45l-186 -364h-111l93 266h-156v1282z" />
<glyph unicode="&#x4c6;" horiz-adv-x="1056" d="M709 881h-297l-12.5 -185.5t-18.5 -199t-32.5 -190.5t-52.5 -160.5t-78 -111.5t-109 -42q-74 0 -119 18l24 137q25 -8 54 -8q41 0 73.5 35t57 132t41 269.5t22.5 448.5h610v-881h205v-45l-186 -364h-111l92 266h-163v881z" />
<glyph unicode="&#x4c7;" horiz-adv-x="1376" d="M1202 -55q0 -190 -64.5 -284.5t-207.5 -94.5h-32q-15 0 -32 4v143q57 0 91 17.5t50.5 51.5t20.5 89t4 129v657h-688v-657h-170v1434h170v-625h688v625h170v-1489z" />
<glyph unicode="&#x4c8;" horiz-adv-x="1105" d="M784 453h-462v-453h-164v1024h164v-428h462v428h164v-1079q0 -190 -65.5 -284.5t-208.5 -94.5q-16 0 -30.5 1t-31.5 3v139q57 0 91 17.5t52.5 53.5t23.5 91t5 129v453z" />
<glyph unicode="&#x4c9;" horiz-adv-x="1394" d="M1032 657h-688v-657h-170v1434h170v-625h688v625h170v-1291h213v-45l-186 -364h-111l92 266h-178v657z" />
<glyph unicode="&#x4ca;" horiz-adv-x="1138" d="M784 453h-462v-453h-164v1024h164v-428h462v428h164v-881h205v-45l-186 -364h-111l92 266h-164v453z" />
<glyph unicode="&#x4cb;" horiz-adv-x="1239" d="M324 1434v-476q0 -281 254 -280q96 0 180 25.5t137 68.5v662h170v-1434h-209l-31 -264h-118v416h188v466q-55 -31 -145.5 -61.5t-206.5 -30.5q-86 0 -158 19.5t-123 65.5t-79.5 124t-28.5 193v506h170z" />
<glyph unicode="&#x4cc;" horiz-adv-x="1003" d="M682 434q-33 -20 -97.5 -43.5t-176.5 -23.5q-76 0 -133.5 17t-96.5 57t-58.5 107.5t-19.5 168.5v307h164v-274q0 -53 6 -97.5t24.5 -77t53.5 -49t92 -16.5q92 0 151.5 20.5t90.5 44.5v449h164v-1024h-180l-31 -260h-111v397h158v297z" />
<glyph unicode="&#x4cd;" horiz-adv-x="1640" d="M1276 963l20 215h-10l-78 -197l-372 -647h-52l-395 649l-74 195h-10l29 -213v-965h-160v1434h127l449 -734l67 -159h4l64 164l428 729h133v-1291h213v-45l-186 -364h-111l92 266h-178v963z" />
<glyph unicode="&#x4ce;" horiz-adv-x="1353" d="M1004 608l12 195h-10l-74 -158l-248 -401h-57l-258 401l-68 158h-8l16 -193v-610h-151v1024h161l287 -459l60 -119h4l61 123l268 455h164v-881h205v-45l-186 -364h-111l92 266h-159v608z" />
<glyph unicode="&#x4cf;" horiz-adv-x="520" d="M178 1434h164v-1434h-164v1434z" />
<glyph unicode="&#x4d0;" horiz-adv-x="1198" d="M856 397h-528l-144 -397h-168l543 1456h78l545 -1456h-178zM383 545h422l-160 436l-51 217h-2l-51 -221zM412 1782q8 -76 57 -117t131 -41t130 41t59 115l145 -35q-23 -111 -103.5 -175.5t-232.5 -64.5q-145 0 -238.5 56.5t-109.5 179.5z" />
<glyph unicode="&#x4d1;" horiz-adv-x="1015" d="M141 948q78 47 181.5 69.5t216.5 22.5q106 0 170.5 -28.5t98.5 -74.5t45 -101.5t11 -110.5q0 -123 -6 -239.5t-6 -221.5q0 -76 6 -143.5t23 -124.5h-121l-43 143h-10q-18 -29 -46 -56.5t-67 -49t-90 -35.5t-117 -14t-122 20.5t-97 58t-64.5 91t-23.5 120.5q0 90 37 150.5 t103.5 96.5t159.5 51.5t206 15.5h56q28 0 56 -4q6 61 7 110q0 113 -45.5 158t-163.5 45q-35 0 -75 -5t-82 -14.5t-80 -22.5t-66 -30zM432 127q57 0 102.5 15.5t78 39t54 52t31.5 55.5v170q-29 2 -58.5 3t-57.5 1q-63 0 -124 -7t-107 -26.5t-73.5 -53.5t-27.5 -85 q0 -72 51 -118t131 -46zM319 1438q20 -94 70.5 -131t116.5 -37t116.5 39t69.5 127l123 -39q-18 -119 -105.5 -182.5t-208.5 -63.5q-55 0 -109 14.5t-97 43t-74 73.5t-41 107z" />
<glyph unicode="&#x4d2;" horiz-adv-x="1198" d="M856 397h-528l-144 -397h-168l543 1456h78l545 -1456h-178zM383 545h422l-160 436l-51 217h-2l-51 -221zM291 1626q0 43 30.5 69.5t79.5 26.5q47 0 77 -26.5t30 -69.5q0 -41 -29.5 -67.5t-77.5 -26.5q-49 0 -79.5 26.5t-30.5 67.5zM684 1626q0 43 29.5 69.5t77.5 26.5 q49 0 79.5 -26.5t30.5 -69.5q0 -41 -30.5 -67.5t-79.5 -26.5q-47 0 -77 26.5t-30 67.5z" />
<glyph unicode="&#x4d3;" horiz-adv-x="1015" d="M141 948q78 47 181.5 69.5t216.5 22.5q106 0 170.5 -28.5t98.5 -74.5t45 -101.5t11 -110.5q0 -123 -6 -239.5t-6 -221.5q0 -76 6 -143.5t23 -124.5h-121l-43 143h-10q-18 -29 -46 -56.5t-67 -49t-90 -35.5t-117 -14t-122 20.5t-97 58t-64.5 91t-23.5 120.5q0 90 37 150.5 t103.5 96.5t159.5 51.5t206 15.5h56q28 0 56 -4q6 61 7 110q0 113 -45.5 158t-163.5 45q-35 0 -75 -5t-82 -14.5t-80 -22.5t-66 -30zM432 127q57 0 102.5 15.5t78 39t54 52t31.5 55.5v170q-29 2 -58.5 3t-57.5 1q-63 0 -124 -7t-107 -26.5t-73.5 -53.5t-27.5 -85 q0 -72 51 -118t131 -46zM201 1298q0 47 27.5 76t72.5 29t73 -29t28 -76q0 -43 -28 -71.5t-73 -28.5t-72.5 28.5t-27.5 71.5zM594 1298q0 47 27.5 76t72.5 29q47 0 75 -29t28 -76q0 -43 -27.5 -71.5t-75.5 -28.5q-45 0 -72.5 28.5t-27.5 71.5z" />
<glyph unicode="&#x4d4;" horiz-adv-x="1732" d="M801 1229l-70 -211l-272 -469h350v680h-8zM809 406h-438l-230 -406h-186l850 1434h784v-152h-610v-469h559v-151h-559v-510h620v-152h-790v406z" />
<glyph unicode="&#x4d5;" horiz-adv-x="1630" d="M432 127q57 0 102.5 15.5t78 39t54 52t31.5 55.5v170q-29 2 -58.5 3t-57.5 1q-63 0 -124 -7t-107 -26.5t-73.5 -53.5t-27.5 -85q0 -72 51 -118t131 -46zM752 172q-27 -37 -62 -70.5t-79 -59.5t-100 -42t-124 -16q-66 0 -122 20.5t-97 58t-64.5 91t-23.5 120.5 q0 90 37 150.5t103.5 96.5t159.5 51.5t206 15.5h56q28 0 56 -4q2 31 4.5 58.5t2.5 51.5q0 113 -45.5 159t-163.5 44q-35 0 -75 -5t-82 -14.5t-80 -22.5t-66 -30l-52 123q78 47 181.5 69.5t216.5 22.5q215 0 278 -133q53 74 143.5 108t180.5 34q70 0 139.5 -15.5t124.5 -59.5 t90 -124t35 -209q0 -33 -3 -68.5t-7 -76.5h-662q0 -178 75 -277.5t255 -99.5q72 0 140.5 25.5t105.5 56.5l61 -119q-61 -49 -154.5 -78t-197.5 -29q-125 0 -226.5 51.5t-150.5 145.5h-14zM1143 905q-121 0 -195 -63.5t-86 -216.5h508v24q0 139 -62.5 197.5t-164.5 58.5z" />
<glyph unicode="&#x4d6;" horiz-adv-x="1097" d="M174 1434h780v-152h-610v-469h559v-151h-559v-510h621v-152h-791v1434zM379 1782q8 -76 57 -117t131 -41t130 41t59 115l145 -35q-23 -111 -103.5 -175.5t-232.5 -64.5q-145 0 -238.5 56.5t-109.5 179.5z" />
<glyph unicode="&#x4d7;" horiz-adv-x="1040" d="M905 82q-61 -49 -154.5 -78t-197.5 -29q-117 0 -203 38t-141 109t-82 169t-27 221q0 262 117 399.5t334 137.5q70 0 139.5 -15.5t124.5 -58.5t90 -122t35 -208q0 -68 -12 -149h-658q0 -90 18.5 -160t57.5 -118t101.5 -73.5t152.5 -25.5q70 0 139.5 24.5t104.5 57.5z M553 905q-121 0 -193.5 -63.5t-87.5 -216.5h508q0 156 -59 218t-168 62zM360 1438q20 -94 70.5 -131t116.5 -37t116.5 39t69.5 127l123 -39q-18 -119 -105.5 -182.5t-208.5 -63.5q-55 0 -109 14.5t-97 43t-74 73.5t-41 107z" />
<glyph unicode="&#x4d8;" horiz-adv-x="1308" d="M297 659q-4 -29 -6 -54t-2 -54q0 -84 19.5 -162t60.5 -137t105.5 -96t154.5 -37q190 0 291.5 136t103.5 404h-727zM1024 803q-18 262 -123.5 383t-316.5 121q-47 0 -94.5 -8.5t-89.5 -20.5t-76.5 -26.5t-57.5 -28.5l-43 137q61 37 163.5 67.5t229.5 30.5q137 0 245 -42 t181.5 -131t112.5 -230.5t39 -337.5q0 -354 -141.5 -548t-425.5 -194q-127 0 -224.5 42t-163 119t-98 187.5t-32.5 247.5q0 53 5 111.5t15 120.5h895z" />
<glyph unicode="&#x4d9;" horiz-adv-x="1038" d="M133 942q61 49 154.5 78t197.5 29q117 0 203 -38t141.5 -109t82 -170t26.5 -220q0 -260 -114.5 -398.5t-319.5 -138.5q-68 0 -139.5 20.5t-130 72t-96.5 138.5t-38 220q0 33 3 66.5t8 72.5h667q-10 174 -85 257t-255 83q-70 0 -138.5 -24.5t-104.5 -57.5zM508 119 q113 0 189.5 80t76.5 237h-514v-30q0 -143 71 -215t177 -72z" />
<glyph unicode="&#x4da;" horiz-adv-x="1308" d="M297 659q-4 -29 -6 -54t-2 -54q0 -84 19.5 -162t60.5 -137t105.5 -96t154.5 -37q190 0 291.5 136t103.5 404h-727zM1024 803q-18 262 -123.5 383t-316.5 121q-47 0 -94.5 -8.5t-89.5 -20.5t-76.5 -26.5t-57.5 -28.5l-43 137q61 37 163.5 67.5t229.5 30.5q137 0 245 -42 t181.5 -131t112.5 -230.5t39 -337.5q0 -354 -141.5 -548t-425.5 -194q-127 0 -224.5 42t-163 119t-98 187.5t-32.5 247.5q0 53 5 111.5t15 120.5h895zM330 1626q0 43 30.5 69.5t79.5 26.5q47 0 77 -26.5t30 -69.5q0 -41 -29.5 -67.5t-77.5 -26.5q-49 0 -79.5 26.5 t-30.5 67.5zM723 1626q0 43 29.5 69.5t77.5 26.5q49 0 79.5 -26.5t30.5 -69.5q0 -41 -30.5 -67.5t-79.5 -26.5q-47 0 -77 26.5t-30 67.5z" />
<glyph unicode="&#x4db;" horiz-adv-x="1038" d="M133 942q61 49 154.5 78t197.5 29q117 0 203 -38t141.5 -109t82 -170t26.5 -220q0 -260 -114.5 -398.5t-319.5 -138.5q-68 0 -139.5 20.5t-130 72t-96.5 138.5t-38 220q0 33 3 66.5t8 72.5h667q-10 174 -85 257t-255 83q-70 0 -138.5 -24.5t-104.5 -57.5zM508 119 q113 0 189.5 80t76.5 237h-514v-30q0 -143 71 -215t177 -72zM207 1298q0 47 27.5 76t72.5 29t73 -29t28 -76q0 -43 -28 -71.5t-73 -28.5t-72.5 28.5t-27.5 71.5zM600 1298q0 47 27.5 76t72.5 29q47 0 75 -29t28 -76q0 -43 -27.5 -71.5t-75.5 -28.5q-45 0 -72.5 28.5 t-27.5 71.5z" />
<glyph unicode="&#x4dc;" horiz-adv-x="1650" d="M733 1434h164v-668l88 29l416 639h188l-413 -623l-82 -66l102 -83l457 -662h-209l-453 664h-94v-664h-164v688l-86 -29l-452 -659h-197l453 641l98 78l-94 72l-428 643h198l416 -643h92v643zM512 1626q0 43 30.5 69.5t79.5 26.5q47 0 77 -26.5t30 -69.5 q0 -41 -29.5 -67.5t-77.5 -26.5q-49 0 -79.5 26.5t-30.5 67.5zM905 1626q0 43 29.5 69.5t77.5 26.5q49 0 79.5 -26.5t30.5 -69.5q0 -41 -30.5 -67.5t-79.5 -26.5q-47 0 -77 26.5t-30 67.5z" />
<glyph unicode="&#x4dd;" horiz-adv-x="1349" d="M492 453l-302 -453h-188l324 469l69 61l-104 78l-266 416h174l282 -442h107v442h160v-463l96 29l284 434h172l-278 -416l-80 -65l105 -82l303 -461h-195l-301 461h-106v-461h-160v481zM375 1298q0 47 27.5 76t72.5 29t73 -29t28 -76q0 -43 -28 -71.5t-73 -28.5 t-72.5 28.5t-27.5 71.5zM768 1298q0 47 27.5 76t72.5 29q47 0 75 -29t28 -76q0 -43 -27.5 -71.5t-75.5 -28.5q-45 0 -72.5 28.5t-27.5 71.5z" />
<glyph unicode="&#x4de;" horiz-adv-x="1107" d="M285 678v143h32h45q27 0 54.5 2t53.5 3t42 5q53 8 100 28t82 50.5t55.5 71.5t20.5 90q0 68 -22.5 113t-62.5 72.5t-92 39t-112 11.5q-111 0 -188.5 -15.5t-124.5 -38.5l-45 136q41 23 147.5 46t239.5 23q82 0 161 -17.5t141 -57.5t100 -108.5t38 -168.5 q0 -102 -67.5 -195.5t-202.5 -134.5v-8q145 -20 229 -108.5t84 -235.5q0 -117 -46 -202t-120.5 -140t-172 -81t-197.5 -26q-135 0 -222.5 15.5t-144.5 38.5l43 153q47 -23 132 -39t206 -16q63 0 124.5 17.5t110 53t78 89t29.5 127.5q0 129 -90 189.5t-236 70.5q-25 2 -46 3 t-44 1h-112zM191 1626q0 43 30.5 69.5t79.5 26.5q47 0 77 -26.5t30 -69.5q0 -41 -29.5 -67.5t-77.5 -26.5q-49 0 -79.5 26.5t-30.5 67.5zM584 1626q0 43 29.5 69.5t77.5 26.5q49 0 79.5 -26.5t30.5 -69.5q0 -41 -30.5 -67.5t-79.5 -26.5q-47 0 -77 26.5t-30 67.5z" />
<glyph unicode="&#x4df;" horiz-adv-x="903" d="M256 457v133h143q37 0 73 12t64.5 33.5t46 51.5t17.5 63q0 80 -55.5 112.5t-165.5 32.5q-80 0 -146.5 -24.5t-103.5 -47.5l-47 127q61 35 144 61.5t198 26.5q340 0 340 -252q0 -72 -46 -140t-132 -97v-8q121 -23 169 -86.5t48 -167.5q0 -66 -26.5 -121t-80 -96 t-134.5 -64.5t-187 -23.5q-104 0 -173 18t-124 45l47 135q47 -27 113.5 -41t144.5 -14q125 0 190.5 43t65.5 131q0 74 -61.5 116t-202.5 42h-119zM121 1298q0 47 27.5 76t72.5 29t73 -29t28 -76q0 -43 -28 -71.5t-73 -28.5t-72.5 28.5t-27.5 71.5zM514 1298q0 47 27.5 76 t72.5 29q47 0 75 -29t28 -76q0 -43 -27.5 -71.5t-75.5 -28.5q-45 0 -72.5 28.5t-27.5 71.5z" />
<glyph unicode="&#x4e0;" horiz-adv-x="1153" d="M471 127q80 0 150.5 20.5t123 58.5t82 92t29.5 122q0 143 -109.5 210.5t-302.5 67.5h-180v56l381 458l90 88l-127 -18h-491v152h850v-62l-410 -489l-72 -60v-8l70 19q102 0 188 -28t147.5 -79t95.5 -125t34 -166q0 -111 -42 -195.5t-116 -144t-174 -90.5t-219 -31 q-45 0 -96 5.5t-100.5 15.5t-91.5 22.5t-68 28.5l43 150q23 -12 59.5 -25.5t80.5 -23t89 -15.5t86 -6z" />
<glyph unicode="&#x4e1;" horiz-adv-x="972" d="M385 -291q70 0 130 21.5t104.5 59.5t69 93.5t24.5 122.5q0 143 -88 213t-240 70h-149v53l294 459l93 88l-131 -17h-406v152h735v-59l-325 -488l-70 -59v-8l66 16q82 0 151.5 -27.5t120.5 -80t79.5 -126t28.5 -163.5q0 -111 -37.5 -197t-105 -145.5t-158 -90t-194.5 -30.5 q-92 0 -165 14t-132 41l47 146q49 -25 112.5 -41.5t145.5 -16.5z" />
<glyph unicode="&#x4e2;" horiz-adv-x="1394" d="M1051 971l12 164h-8l-88 -168l-693 -967h-100v1434h170v-983l-14 -162h8l90 168l692 977h101v-1434h-170v971zM387 1726h647v-127h-647v127z" />
<glyph unicode="&#x4e3;" horiz-adv-x="1118" d="M797 606l6 127h-6l-84 -131l-461 -602h-94v1024h164v-625l-7 -120h9l79 127l461 618h97v-1024h-164v606zM266 1317h606v-127h-606v127z" />
<glyph unicode="&#x4e4;" horiz-adv-x="1394" d="M1051 971l12 164h-8l-88 -168l-693 -967h-100v1434h170v-983l-14 -162h8l90 168l692 977h101v-1434h-170v971zM389 1626q0 43 30.5 69.5t79.5 26.5q47 0 77 -26.5t30 -69.5q0 -41 -29.5 -67.5t-77.5 -26.5q-49 0 -79.5 26.5t-30.5 67.5zM782 1626q0 43 29.5 69.5 t77.5 26.5q49 0 79.5 -26.5t30.5 -69.5q0 -41 -30.5 -67.5t-79.5 -26.5q-47 0 -77 26.5t-30 67.5z" />
<glyph unicode="&#x4e5;" horiz-adv-x="1118" d="M797 606l6 127h-6l-84 -131l-461 -602h-94v1024h164v-625l-7 -120h9l79 127l461 618h97v-1024h-164v606zM279 1298q0 47 27.5 76t72.5 29t73 -29t28 -76q0 -43 -28 -71.5t-73 -28.5t-72.5 28.5t-27.5 71.5zM672 1298q0 47 27.5 76t72.5 29q47 0 75 -29t28 -76 q0 -43 -27.5 -71.5t-75.5 -28.5q-45 0 -72.5 28.5t-27.5 71.5z" />
<glyph unicode="&#x4e6;" horiz-adv-x="1400" d="M115 717q0 358 151.5 549.5t431.5 191.5q152 0 262.5 -53t183.5 -150.5t107.5 -233.5t34.5 -304q0 -358 -152.5 -550t-435.5 -192q-150 0 -259 53.5t-182 150.5t-107.5 233.5t-34.5 304.5zM295 717q0 -119 23.5 -225.5t72.5 -187.5t126 -129t181 -48q190 0 299 144.5 t109 445.5q0 117 -23.5 224.5t-74 188t-127 129t-183.5 48.5q-188 0 -295.5 -144.5t-107.5 -445.5zM395 1626q0 43 30.5 69.5t79.5 26.5q47 0 77 -26.5t30 -69.5q0 -41 -29.5 -67.5t-77.5 -26.5q-49 0 -79.5 26.5t-30.5 67.5zM788 1626q0 43 29.5 69.5t77.5 26.5 q49 0 79.5 -26.5t30.5 -69.5q0 -41 -30.5 -67.5t-79.5 -26.5q-47 0 -77 26.5t-30 67.5z" />
<glyph unicode="&#x4e7;" horiz-adv-x="1097" d="M100 512q0 260 116 398.5t333 138.5q115 0 200 -38t140 -109t81.5 -170t26.5 -220q0 -260 -115.5 -398.5t-332.5 -138.5q-115 0 -200 38t-140 109t-82 170t-27 220zM270 512q0 -78 15.5 -149.5t48.5 -125t86 -86t129 -32.5h3q276 0 275 393q0 80 -15 151.5t-48 125 t-86 85t-129 31.5h-3q-276 0 -276 -393zM246 1298q0 47 27.5 76t72.5 29t73 -29t28 -76q0 -43 -28 -71.5t-73 -28.5t-72.5 28.5t-27.5 71.5zM639 1298q0 47 27.5 76t72.5 29q47 0 75 -29t28 -76q0 -43 -27.5 -71.5t-75.5 -28.5q-45 0 -72.5 28.5t-27.5 71.5z" />
<glyph unicode="&#x4e8;" horiz-adv-x="1400" d="M115 717q0 358 151.5 549.5t431.5 191.5q152 0 262.5 -53t183.5 -150.5t107.5 -233.5t34.5 -304q0 -358 -152.5 -550t-435.5 -192q-150 0 -259 53.5t-182 150.5t-107.5 233.5t-34.5 304.5zM1106 803q-16 244 -128 374t-280 130q-74 0 -143.5 -26t-124.5 -85t-91 -155.5 t-44 -237.5h811zM295 651q16 -264 128 -394t275 -130q76 0 148 24.5t127 85t91 161t42 253.5h-811z" />
<glyph unicode="&#x4e9;" horiz-adv-x="1097" d="M100 512q0 260 116 398.5t333 138.5q115 0 200 -38t140 -109t81.5 -170t26.5 -220q0 -260 -115.5 -398.5t-332.5 -138.5q-115 0 -200 38t-140 109t-82 170t-27 220zM827 575q-16 174 -88.5 252t-189.5 78q-53 0 -101.5 -16.5t-86 -55t-62.5 -102t-29 -156.5h557zM270 444 q10 -160 88 -242.5t191 -82.5q51 0 99 16.5t86 53t62.5 99t30.5 156.5h-557z" />
<glyph unicode="&#x4ea;" horiz-adv-x="1400" d="M115 717q0 358 151.5 549.5t431.5 191.5q152 0 262.5 -53t183.5 -150.5t107.5 -233.5t34.5 -304q0 -358 -152.5 -550t-435.5 -192q-150 0 -259 53.5t-182 150.5t-107.5 233.5t-34.5 304.5zM1106 803q-16 244 -128 374t-280 130q-74 0 -143.5 -26t-124.5 -85t-91 -155.5 t-44 -237.5h811zM295 651q16 -264 128 -394t275 -130q76 0 148 24.5t127 85t91 161t42 253.5h-811zM395 1626q0 43 30.5 69.5t79.5 26.5q47 0 77 -26.5t30 -69.5q0 -41 -29.5 -67.5t-77.5 -26.5q-49 0 -79.5 26.5t-30.5 67.5zM788 1626q0 43 29.5 69.5t77.5 26.5 q49 0 79.5 -26.5t30.5 -69.5q0 -41 -30.5 -67.5t-79.5 -26.5q-47 0 -77 26.5t-30 67.5z" />
<glyph unicode="&#x4eb;" horiz-adv-x="1097" d="M100 512q0 260 116 398.5t333 138.5q115 0 200 -38t140 -109t81.5 -170t26.5 -220q0 -260 -115.5 -398.5t-332.5 -138.5q-115 0 -200 38t-140 109t-82 170t-27 220zM827 575q-16 174 -88.5 252t-189.5 78q-53 0 -101.5 -16.5t-86 -55t-62.5 -102t-29 -156.5h557zM270 444 q10 -160 88 -242.5t191 -82.5q51 0 99 16.5t86 53t62.5 99t30.5 156.5h-557zM246 1298q0 47 27.5 76t72.5 29t73 -29t28 -76q0 -43 -28 -71.5t-73 -28.5t-72.5 28.5t-27.5 71.5zM639 1298q0 47 27.5 76t72.5 29q47 0 75 -29t28 -76q0 -43 -27.5 -71.5t-75.5 -28.5 q-45 0 -72.5 28.5t-27.5 71.5z" />
<glyph unicode="&#x4ec;" horiz-adv-x="1181" d="M307 809h590q-10 125 -49 220t-100.5 157.5t-142.5 91.5t-175 29q-96 0 -171 -16.5t-122 -45.5l-45 133q63 37 157.5 58.5t201.5 21.5q131 0 243.5 -41t195.5 -130t130 -230.5t47 -339.5q0 -201 -53 -342.5t-144.5 -230.5t-211 -129t-250.5 -40q-102 0 -181.5 14.5 t-134.5 37.5l45 149q47 -23 123 -36t158 -13t165 25.5t150.5 89t112.5 166t53 249.5h-592v152zM160 1626q0 43 30.5 69.5t79.5 26.5q47 0 77 -26.5t30 -69.5q0 -41 -29.5 -67.5t-77.5 -26.5q-49 0 -79.5 26.5t-30.5 67.5zM553 1626q0 43 29.5 69.5t77.5 26.5 q49 0 79.5 -26.5t30.5 -69.5q0 -41 -30.5 -67.5t-79.5 -26.5q-47 0 -77 26.5t-30 67.5z" />
<glyph unicode="&#x4ed;" horiz-adv-x="952" d="M248 584h434q-10 145 -85 233t-212 88q-84 0 -146.5 -22.5t-101.5 -48.5l-57 124q63 43 145 67t191 24q227 0 331.5 -141.5t104.5 -395.5q0 -262 -121 -399.5t-336 -137.5q-96 0 -177 15.5t-136 46.5l47 139q47 -27 115.5 -42t134.5 -15q287 -2 305 330h-436v135z M117 1298q0 47 27.5 76t72.5 29t73 -29t28 -76q0 -43 -28 -71.5t-73 -28.5t-72.5 28.5t-27.5 71.5zM510 1298q0 47 27.5 76t72.5 29q47 0 75 -29t28 -76q0 -43 -27.5 -71.5t-75.5 -28.5q-45 0 -72.5 28.5t-27.5 71.5z" />
<glyph unicode="&#x4ee;" horiz-adv-x="1132" d="M578 678l53 -182h10l41 188l274 750h174l-362 -932q-55 -145 -97 -242.5t-85 -158t-92.5 -86t-120.5 -25.5q-68 0 -108 11t-75 34l52 141q41 -23 75.5 -29t63.5 -6q57 0 96 58.5t68 173.5l-531 1061h197zM283 1726h647v-127h-647v127z" />
<glyph unicode="&#x4ef;" horiz-adv-x="954" d="M459 360l57 -196h10l45 198l199 662h166l-303 -920l-69 -194q-34 -94 -74.5 -168t-92 -118t-118.5 -44q-74 0 -121 21l28 141q27 -10 52 -10q57 0 110 60.5t88 207.5l-411 1024h188zM201 1317h606v-127h-606v127z" />
<glyph unicode="&#x4f0;" horiz-adv-x="1132" d="M578 678l53 -182h10l41 188l274 750h174l-362 -932q-55 -145 -97 -242.5t-85 -158t-92.5 -86t-120.5 -25.5q-68 0 -108 11t-75 34l52 141q41 -23 75.5 -29t63.5 -6q57 0 96 58.5t68 173.5l-531 1061h197zM297 1626q0 43 30.5 69.5t79.5 26.5q47 0 77 -26.5t30 -69.5 q0 -41 -29.5 -67.5t-77.5 -26.5q-49 0 -79.5 26.5t-30.5 67.5zM690 1626q0 43 29.5 69.5t77.5 26.5q49 0 79.5 -26.5t30.5 -69.5q0 -41 -30.5 -67.5t-79.5 -26.5q-47 0 -77 26.5t-30 67.5z" />
<glyph unicode="&#x4f1;" horiz-adv-x="954" d="M459 360l57 -196h10l45 198l199 662h166l-303 -920l-69 -194q-34 -94 -74.5 -168t-92 -118t-118.5 -44q-74 0 -121 21l28 141q27 -10 52 -10q57 0 110 60.5t88 207.5l-411 1024h188zM203 1298q0 47 27.5 76t72.5 29t73 -29t28 -76q0 -43 -28 -71.5t-73 -28.5t-72.5 28.5 t-27.5 71.5zM596 1298q0 47 27.5 76t72.5 29q47 0 75 -29t28 -76q0 -43 -27.5 -71.5t-75.5 -28.5q-45 0 -72.5 28.5t-27.5 71.5z" />
<glyph unicode="&#x4f2;" horiz-adv-x="1132" d="M578 678l53 -182h10l41 188l274 750h174l-362 -932q-55 -145 -97 -242.5t-85 -158t-92.5 -86t-120.5 -25.5q-68 0 -108 11t-75 34l52 141q41 -23 75.5 -29t63.5 -6q57 0 96 58.5t68 173.5l-531 1061h197zM494 1741h190v-33l-204 -190h-117zM826 1741h202v-33l-292 -190 h-119z" />
<glyph unicode="&#x4f3;" horiz-adv-x="954" d="M459 360l57 -196h10l45 198l199 662h166l-303 -920l-69 -194q-34 -94 -74.5 -168t-92 -118t-118.5 -44q-74 0 -121 21l28 141q27 -10 52 -10q57 0 110 60.5t88 207.5l-411 1024h188zM400 1434h159v-33l-145 -232h-86zM699 1434h176v-33l-234 -232h-92z" />
<glyph unicode="&#x4f4;" horiz-adv-x="1239" d="M324 1434v-476q0 -281 254 -280q96 0 180 25.5t137 68.5v662h170v-1434h-170v618q-55 -31 -145.5 -61.5t-206.5 -30.5q-86 0 -158 19.5t-123 65.5t-79.5 124t-28.5 193v506h170zM322 1626q0 43 30.5 69.5t79.5 26.5q47 0 77 -26.5t30 -69.5q0 -41 -29.5 -67.5 t-77.5 -26.5q-49 0 -79.5 26.5t-30.5 67.5zM715 1626q0 43 29.5 69.5t77.5 26.5q49 0 79.5 -26.5t30.5 -69.5q0 -41 -30.5 -67.5t-79.5 -26.5q-47 0 -77 26.5t-30 67.5z" />
<glyph unicode="&#x4f5;" horiz-adv-x="1003" d="M264 1024v-279q0 -55 6 -99t24.5 -75.5t53.5 -49t92 -17.5q92 0 151.5 20.5t90.5 44.5v455h164v-1024h-164v430q-33 -20 -97.5 -45t-176.5 -25q-76 0 -133.5 16.5t-96.5 57.5t-58.5 108.5t-19.5 170.5v311h164zM174 1298q0 47 27.5 76t72.5 29t73 -29t28 -76 q0 -43 -28 -71.5t-73 -28.5t-72.5 28.5t-27.5 71.5zM567 1298q0 47 27.5 76t72.5 29q47 0 75 -29t28 -76q0 -43 -27.5 -71.5t-75.5 -28.5q-45 0 -72.5 28.5t-27.5 71.5z" />
<glyph unicode="&#x4f6;" horiz-adv-x="905" d="M942 1282h-598v-1130h188v-416h-118l-31 264h-209v1434h768v-152z" />
<glyph unicode="&#x4f7;" horiz-adv-x="755" d="M158 1024h598v-143h-434v-738h151v-403h-111l-30 260h-174v1024z" />
<glyph unicode="&#x4f8;" horiz-adv-x="1574" d="M1231 1434h170v-1434h-170v1434zM174 1434h170v-557q10 2 30.5 5t45.5 5l50 4q26 2 50 2q96 0 187.5 -19.5t161 -68.5t111.5 -132t42 -210q0 -123 -39 -214t-109.5 -149.5t-169 -87t-217.5 -28.5q-29 0 -66.5 1t-79.5 4t-85 9t-82 16v1420zM502 131q147 0 243.5 80 t96.5 240q0 86 -29 143t-77 91t-110.5 47t-131.5 13q-37 0 -82 -6t-68 -12v-584q56 -12 158 -12zM469 1626q0 43 30.5 69.5t79.5 26.5q47 0 77 -26.5t30 -69.5q0 -41 -29.5 -67.5t-77.5 -26.5q-49 0 -79.5 26.5t-30.5 67.5zM862 1626q0 43 29.5 69.5t77.5 26.5 q49 0 79.5 -26.5t30.5 -69.5q0 -41 -30.5 -67.5t-79.5 -26.5q-47 0 -77 26.5t-30 67.5z" />
<glyph unicode="&#x4f9;" horiz-adv-x="1351" d="M322 143q76 -12 145 -12q129 0 180 50t51 143q0 82 -50 135t-175 53q-35 0 -76 -2t-75 -12v-355zM322 633q49 8 94 11t86 3q104 0 175 -23.5t114 -64.5t60 -97t17 -120q0 -186 -103 -270t-335 -84q-131 0 -272 12v1024h164v-391zM1030 1024h164v-1024h-164v1024z M369 1298q0 47 27.5 76t72.5 29t73 -29t28 -76q0 -43 -28 -71.5t-73 -28.5t-72.5 28.5t-27.5 71.5zM762 1298q0 47 27.5 76t72.5 29q47 0 75 -29t28 -76q0 -43 -27.5 -71.5t-75.5 -28.5q-45 0 -72.5 28.5t-27.5 71.5z" />
<glyph unicode="&#x4fc;" horiz-adv-x="1265" d="M981 -86q0 100 -33 176t-74 139l-186 285l-59 123l-54 -123l-331 -514h-191l477 729l-436 705h205l291 -486l51 -117l49 117l307 486h189l-451 -691l285 -440q66 -100 95.5 -184t29.5 -170q0 -190 -67.5 -284.5t-213.5 -94.5h-31q-15 0 -32 4v139q57 0 93 16.5t55.5 44 t25.5 64.5t6 76z" />
<glyph unicode="&#x4fd;" horiz-adv-x="1052" d="M827 258q59 -86 95 -170t36 -162q0 -178 -76.5 -269t-224.5 -91q-16 0 -32.5 1t-30.5 3v139q117 0 159 45t42 137q0 84 -36 158t-77 133l-96 129l-66 115l-59 -115l-221 -311h-183l369 524l-344 500h201l194 -283l58 -116l59 116l199 283h184l-346 -492z" />
<glyph unicode="&#x510;" horiz-adv-x="1105" d="M729 678q-25 0 -46 -1t-44 -3q-145 -10 -235.5 -71.5t-90.5 -188.5q0 -147 98.5 -217t262.5 -70q86 0 166 19.5t123 48.5l53 -129q-51 -33 -144.5 -62t-228.5 -29q-115 0 -208 26t-160.5 79t-104.5 133t-37 190q0 150 80 243t225 116v8q-68 20 -117 56t-80.5 81t-48 96.5 t-16.5 102.5q0 92 37 158.5t100.5 109.5t149.5 63.5t182 20.5q55 0 109.5 -7t101.5 -17.5t84 -23.5t59 -28l-49 -137q-55 25 -135 43.5t-156 18.5q-139 0 -221 -49.5t-82 -167.5q0 -57 25 -102.5t65.5 -78t92 -53t104.5 -27.5q35 -4 82 -6t84 -2h33v-143h-113z" />
<glyph unicode="&#x511;" horiz-adv-x="903" d="M528 457q-141 0 -202.5 -42t-61.5 -116q0 -78 65.5 -126t190.5 -48q76 0 143.5 18.5t114.5 46.5l47 -133q-51 -29 -121.5 -52t-175.5 -23q-217 0 -322.5 81.5t-105.5 223.5q0 104 50.5 163.5t166.5 90.5v8q-86 29 -132 90t-46 145q0 127 92.5 190.5t247.5 63.5 q117 0 199 -26.5t143 -61.5l-47 -127q-37 23 -103.5 47.5t-146.5 24.5q-111 0 -166 -33t-55 -112q0 -33 17.5 -63t46 -51.5t64.5 -33.5t73 -12h143v-133h-119z" />
<glyph unicode="&#x512;" horiz-adv-x="1282" d="M1108 -55q0 -190 -65.5 -284.5t-208.5 -94.5q-16 0 -31 1t-31 3v139q57 0 91 15.5t50.5 50.5t20.5 90t4 135v1282h-428q-20 -410 -54 -681t-104 -423q-45 -98 -105.5 -143t-131.5 -45q-72 0 -119 20l27 148q20 -6 43 -6q35 0 69.5 22.5t67.5 83.5q29 55 53.5 147.5 t43.5 233.5t31.5 336.5t18.5 458.5h758v-1489z" />
<glyph unicode="&#x513;" horiz-adv-x="1030" d="M709 881h-297l-12.5 -185.5t-18.5 -199t-32.5 -190.5t-52.5 -160.5t-78 -111.5t-109 -42q-39 0 -68 4t-51 14l24 137q25 -8 54 -8q41 0 73.5 35t57 132t41 269.5t22.5 448.5h610v-1079q0 -190 -65.5 -284.5t-208.5 -94.5q-16 0 -30.5 1t-30.5 3v139q57 0 91 17.5t52 53.5 t23.5 91t5.5 129v881z" />
<glyph unicode="&#x51c;" horiz-adv-x="1695" d="M455 473l32 -237h2l35 241l295 957h82l297 -961l35 -237h2l37 241l241 957h166l-399 -1457h-94l-291 961l-37 217h-10l-37 -219l-291 -959h-94l-410 1457h181z" />
<glyph unicode="&#x51d;" horiz-adv-x="1505" d="M821 1024l236 -598l51 -197h4l39 201l182 594h156l-344 -1047h-80l-268 676l-39 168h-6l-41 -170l-258 -674h-80l-357 1047h179l202 -596l35 -199h2l49 203l219 592h119z" />
<glyph unicode="&#x524;" horiz-adv-x="1421" d="M1006 1282h-662v-1282h-170v1434h1002v-1282h188v-416h-119l-31 264h-208v1282z" />
<glyph unicode="&#x525;" horiz-adv-x="1134" d="M774 881h-452v-881h-164v1024h780v-881h152v-403h-111l-31 260h-174v881z" />
<glyph unicode="&#x526;" horiz-adv-x="1310" d="M918 0v475q0 281 -254 281q-98 0 -182.5 -25.5t-137.5 -68.5v-662h-170v1434h170v-619q55 31 146.5 61.5t205.5 30.5q86 0 159 -19.5t124 -65.5t79.5 -123.5t28.5 -192.5v-354h189v-416h-119l-31 264h-208z" />
<glyph unicode="&#x527;" horiz-adv-x="1175" d="M815 0v584q0 80 -9 140t-33.5 100t-66.5 60.5t-110 20.5q-96 0 -174 -62.5t-100 -160.5v-682h-164v1434h164v-525h8q53 63 127.5 101.5t185.5 38.5q86 0 149.5 -19.5t105.5 -69t61.5 -132.5t19.5 -210v-475h151v-403h-110l-31 260h-174z" />
<glyph unicode="&#x1e30;" horiz-adv-x="1249" d="M440 664h-96v-664h-170v1434h170v-668l92 29l482 639h196l-479 -617l-86 -67l104 -82l525 -668h-215zM646 1782h233v-43l-334 -199h-141z" />
<glyph unicode="&#x1e31;" horiz-adv-x="980" d="M416 461h-94v-461h-164v1434h164v-873l84 29l317 434h190l-313 -412l-84 -67l102 -82l343 -463h-203zM596 1475h182v-43l-207 -263h-96z" />
<glyph unicode="&#x1e3e;" horiz-adv-x="1619" d="M1276 963l20 215h-10l-78 -197l-372 -647h-52l-395 649l-74 195h-10l29 -213v-965h-160v1434h127l449 -734l67 -159h4l64 164l428 729h133v-1434h-170v963zM922 1782h233v-43l-334 -199h-141z" />
<glyph unicode="&#x1e3f;" horiz-adv-x="1662" d="M758 0v580q0 82 -7.5 142t-28 101t-58 61.5t-99.5 20.5q-94 0 -156.5 -57t-86.5 -143v-705h-164v1024h114l31 -125h8q55 66 128 108t190 42q98 0 160.5 -38t97.5 -132q47 80 130 125t187 45q86 0 145.5 -19.5t98.5 -69t56.5 -133.5t17.5 -213v-614h-164v616 q0 74 -7.5 128.5t-29 90t-59 53t-99.5 17.5q-102 0 -159.5 -57t-81.5 -164v-684h-164zM871 1475h182v-43l-207 -263h-96z" />
<glyph unicode="&#x1e54;" horiz-adv-x="1144" d="M174 1419q78 18 168 24.5t178 6.5q94 0 191.5 -18.5t177.5 -67.5t130 -135t50 -219q0 -131 -47 -221.5t-125 -146.5t-178.5 -80.5t-206.5 -24.5h-34q-24 0 -49.5 1t-50 3t-34.5 4v-545h-170v1419zM524 1303q-53 0 -102 -2.5t-78 -10.5v-594q10 -4 33 -5l47 -2 q25 -1 47 -1h33q70 0 138.5 13.5t123.5 48t89 98t34 162.5q0 84 -32 140t-84 90t-117.5 48.5t-131.5 14.5zM656 1782h233v-43l-334 -199h-141z" />
<glyph unicode="&#x1e55;" horiz-adv-x="1107" d="M158 1024h112l31 -123h8q47 72 122 110t171 38q205 0 305.5 -121t100.5 -396q0 -129 -34 -232t-95.5 -175t-148.5 -111t-193 -39q-76 0 -120 9.5t-95 31.5v-426h-164v1434zM571 905q-104 0 -164.5 -54t-84.5 -165v-508q37 -29 84 -44t124 -15q141 0 224.5 105.5 t83.5 310.5q0 84 -14.5 152.5t-46.5 116.5t-82 74.5t-124 26.5zM602 1475h182v-43l-207 -263h-96z" />
<glyph unicode="&#x1e9e;" horiz-adv-x="1366" d="M879 1235q-18 16 -49 30.5t-70 26t-83 17.5t-89 6q-90 0 -140.5 -34t-73 -89t-26.5 -127t-4 -150v-915h-170v979q0 98 17.5 186t64.5 152.5t129 102.5t213 38q170 0 292 -50t212 -120l-332 -405l-68 -60v-4l68 15q199 -2 310.5 -107.5t111.5 -290.5q0 -221 -125 -341 t-344 -120q-18 0 -51 2.5t-70 6.5t-71.5 11t-59.5 19l27 154q18 -12 47.5 -19.5t62.5 -12.5t63.5 -7t53.5 -2q143 4 213 80t74 211q0 143 -90.5 211.5t-262.5 68.5h-127v121z" />
<glyph unicode="&#x2000;" horiz-adv-x="1017" />
<glyph unicode="&#x2001;" horiz-adv-x="2035" />
<glyph unicode="&#x2002;" horiz-adv-x="1017" />
<glyph unicode="&#x2003;" horiz-adv-x="2035" />
<glyph unicode="&#x2004;" horiz-adv-x="677" />
<glyph unicode="&#x2005;" horiz-adv-x="507" />
<glyph unicode="&#x2006;" horiz-adv-x="337" />
<glyph unicode="&#x2007;" horiz-adv-x="337" />
<glyph unicode="&#x2008;" horiz-adv-x="253" />
<glyph unicode="&#x2009;" horiz-adv-x="405" />
<glyph unicode="&#x200a;" horiz-adv-x="112" />
<glyph unicode="&#x2010;" horiz-adv-x="737" d="M121 666h495v-152h-495v152z" />
<glyph unicode="&#x2011;" horiz-adv-x="737" d="M121 666h495v-152h-495v152z" />
<glyph unicode="&#x2012;" horiz-adv-x="737" d="M121 666h495v-152h-495v152z" />
<glyph unicode="&#x2013;" horiz-adv-x="1351" d="M242 666h868v-152h-868v152z" />
<glyph unicode="&#x2014;" horiz-adv-x="1679" d="M242 666h1196v-152h-1196v152z" />
<glyph unicode="&#x2018;" horiz-adv-x="397" d="M317 1270q0 -47 -30.5 -75t-77.5 -28q-55 0 -91 37t-36 109q0 68 19.5 116t47 81.5t57.5 54t52 28.5l51 -71q-45 -23 -72.5 -61t-27.5 -95q8 2 22 2q41 0 63.5 -28.5t22.5 -69.5z" />
<glyph unicode="&#x2019;" horiz-adv-x="397" d="M82 1350q0 47 29.5 73.5t76.5 26.5q57 0 93 -36t36 -107q0 -68 -19 -117t-47 -83t-58.5 -54.5t-53.5 -28.5l-51 70q47 25 73.5 61.5t26.5 95.5q-8 -2 -22 -2q-39 0 -61.5 28t-22.5 73z" />
<glyph unicode="&#x201a;" horiz-adv-x="397" d="M82 103q0 47 29.5 73.5t76.5 26.5q57 0 93 -36t36 -107q0 -68 -19 -117t-47 -83t-58.5 -54.5t-53.5 -28.5l-51 70q47 25 73.5 61.5t26.5 95.5q-8 -2 -22 -2q-39 0 -61.5 28t-22.5 73z" />
<glyph unicode="&#x201c;" horiz-adv-x="696" d="M616 1270q0 -47 -30.5 -75t-77.5 -28q-55 0 -91 37t-36 109q0 68 19.5 116t47 81.5t57.5 54t52 28.5l51 -71q-45 -23 -72.5 -61t-27.5 -95q8 2 22 2q41 0 63.5 -28.5t22.5 -69.5zM317 1270q0 -47 -30.5 -75t-77.5 -28q-55 0 -91 37t-36 109q0 68 19.5 116t47 81.5 t57.5 54t52 28.5l51 -71q-45 -23 -72.5 -61t-27.5 -95q8 2 22 2q41 0 63.5 -28.5t22.5 -69.5z" />
<glyph unicode="&#x201d;" horiz-adv-x="696" d="M381 1350q0 47 29.5 73.5t76.5 26.5q57 0 93 -36t36 -107q0 -68 -19 -117t-47 -83t-58.5 -54.5t-53.5 -28.5l-51 70q47 25 73.5 61.5t26.5 95.5q-8 -2 -22 -2q-39 0 -61.5 28t-22.5 73zM82 1350q0 47 29.5 73.5t76.5 26.5q57 0 93 -36t36 -107q0 -68 -19 -117t-47 -83 t-58.5 -54.5t-53.5 -28.5l-51 70q47 25 73.5 61.5t26.5 95.5q-8 -2 -22 -2q-39 0 -61.5 28t-22.5 73z" />
<glyph unicode="&#x201e;" horiz-adv-x="696" d="M381 103q0 47 29.5 73.5t76.5 26.5q57 0 93 -36t36 -107q0 -68 -19 -117t-47 -83t-58.5 -54.5t-53.5 -28.5l-51 70q47 25 73.5 61.5t26.5 95.5q-8 -2 -22 -2q-39 0 -61.5 28t-22.5 73zM82 103q0 47 29.5 73.5t76.5 26.5q57 0 93 -36t36 -107q0 -68 -19 -117t-47 -83 t-58.5 -54.5t-53.5 -28.5l-51 70q47 25 73.5 61.5t26.5 95.5q-8 -2 -22 -2q-39 0 -61.5 28t-22.5 73z" />
<glyph unicode="&#x2020;" horiz-adv-x="995" d="M82 1028h268l88 -22l-22 96v332h164v-332l-23 -96l88 22h268v-147h-272l-84 22l23 -86v-817l-31 -410h-103l-30 412v815l22 86l-88 -22h-268v147z" />
<glyph unicode="&#x2021;" horiz-adv-x="995" d="M416 819l22 84l-88 -22h-268v147h268l88 -22l-22 94v334h164v-334l-23 -94l88 22h268v-147h-272l-84 22l23 -84v-254l-23 -84l84 23h272v-148h-268l-88 23l23 -94v-285l-33 -410h-98l-33 412v283l22 94l-88 -23h-268v148h268l88 -23l-22 84v254z" />
<glyph unicode="&#x2022;" horiz-adv-x="925" d="M178 637q0 63 22.5 115.5t60.5 90.5t90 58.5t112 20.5q59 0 111.5 -19.5t90 -56.5t60.5 -89t23 -120t-23 -120t-60.5 -89t-90 -56.5t-111.5 -19.5t-111.5 19.5t-90.5 56.5t-60.5 89t-22.5 120z" />
<glyph unicode="&#x2026;" horiz-adv-x="1554" d="M1186 94q0 55 31.5 87t85.5 32q55 0 87.5 -31.5t32.5 -87.5q0 -53 -32.5 -86t-87.5 -33q-53 0 -85 33t-32 86zM666 94q0 55 31.5 87t84.5 32q55 0 88 -31.5t33 -87.5q0 -53 -32.5 -86t-88.5 -33q-53 0 -84.5 33t-31.5 86zM145 94q0 55 32 87t85 32q55 0 88 -31.5 t33 -87.5q0 -53 -33 -86t-88 -33q-53 0 -85 33t-32 86z" />
<glyph unicode="&#x202f;" horiz-adv-x="405" />
<glyph unicode="&#x2030;" horiz-adv-x="2349" d="M143 1110q0 92 24.5 157.5t66.5 108.5t100.5 62.5t126.5 19.5t126 -18.5t100 -59.5t66.5 -107.5t24.5 -162.5t-24.5 -162.5t-66.5 -107.5t-100.5 -59.5t-125.5 -18.5q-68 0 -126.5 18.5t-100.5 59.5t-66.5 107.5t-24.5 162.5zM295 1110q0 -123 44 -176t122 -53 q39 0 69.5 11t52 36.5t32.5 69.5t11 112t-11 112t-32.5 69.5t-52.5 36.5t-69 11q-78 0 -122 -48t-44 -181zM872 350q0 92 24.5 157.5t66.5 108.5t100.5 62.5t126.5 19.5t126 -18.5t100 -59.5t66.5 -107.5t24.5 -162.5t-24.5 -162.5t-66.5 -107.5t-100.5 -59.5t-125.5 -18.5 q-68 0 -126.5 18.5t-100.5 59.5t-66.5 107.5t-24.5 162.5zM1024 350q0 -123 44 -176t122 -53q39 0 69.5 11t52 36.5t32.5 69.5t11 112t-11 112t-32.5 69.5t-52.5 36.5t-69 11q-78 0 -122 -48t-44 -181zM1603 350q0 92 24.5 157.5t66.5 108.5t100.5 62.5t126.5 19.5 t126 -18.5t100 -59.5t66.5 -107.5t24.5 -162.5t-24.5 -162.5t-66.5 -107.5t-100.5 -59.5t-125.5 -18.5q-68 0 -126.5 18.5t-100.5 59.5t-66.5 107.5t-24.5 162.5zM1755 350q0 -123 44 -176t122 -53q39 0 69.5 11t52 36.5t32.5 69.5t11 112t-11 112t-32.5 69.5t-52.5 36.5 t-69 11q-78 0 -122 -48t-44 -181zM1305 1460l100 -78l-1051 -1407l-102 80z" />
<glyph unicode="&#x2039;" horiz-adv-x="608" d="M80 530l328 471l108 -88l-199 -297l-98 -84l98 -73l211 -291l-108 -90z" />
<glyph unicode="&#x203a;" horiz-adv-x="608" d="M528 549l-327 -471l-109 88l199 297l98 84l-98 74l-211 290l108 90z" />
<glyph unicode="&#x2044;" horiz-adv-x="376" d="M635 1460l106 -71l-997 -1414l-106 74z" />
<glyph unicode="&#x205f;" horiz-adv-x="507" />
<glyph unicode="&#x2081;" horiz-adv-x="806" d="M147 -80h218v520l14 74l-55 -57l-160 -97l-55 101l315 209h84v-750h194v-125h-555v125z" />
<glyph unicode="&#x2082;" horiz-adv-x="806" d="M653 430q0 -63 -21.5 -122.5t-57 -117t-85 -114t-104.5 -113.5l-94 -65v-4l117 30h286v-129h-596v68q47 39 118 104.5t136.5 141t111.5 155.5t46 148q0 63 -41 95t-100 32q-55 0 -107.5 -19.5t-91.5 -44.5l-45 117q53 37 123.5 57.5t144.5 20.5q129 0 194.5 -63.5 t65.5 -176.5z" />
<glyph unicode="&#x2083;" horiz-adv-x="806" d="M346 -96q98 0 150.5 39t52.5 114q0 66 -47 107t-152 41h-112v47l198 237l70 56l-100 -13h-267v123h525v-67l-211 -252l-52 -37v-4l48 6q113 -2 178 -67.5t65 -176.5q0 -125 -91 -200.5t-243 -75.5q-74 0 -127 12t-94 27l31 123q35 -16 80 -27.5t98 -11.5z" />
<glyph unicode="&#x2084;" horiz-adv-x="806" d="M776 -8h-170v-197h-137v197h-418v76l463 618h92v-573h170v-121zM469 375l12 100h-4l-45 -94l-160 -215l-67 -64l102 11h162v262z" />
<glyph unicode="&#x20ac;" d="M57 930h127q23 141 76 240.5t128 164t168 94t198 29.5q104 0 180 -13t131 -36l-45 -145q-47 23 -110.5 35t-153.5 12q-70 0 -133.5 -20.5t-115.5 -65.5t-90 -118t-59 -177h578l-35 -135h-557q-2 -18 -2 -38v-40v-35q0 -16 2 -33h516l-35 -135h-467q35 -199 142.5 -295 t283.5 -96q80 0 146.5 18.5t113.5 46.5l41 -129q-61 -47 -152 -65.5t-183 -18.5q-236 0 -382.5 130.5t-187.5 408.5h-160l37 135h111v68v39q0 18 2 39h-150z" />
<glyph unicode="&#x20b4;" d="M922 649v-135h-469q-23 -23 -44.5 -51.5t-39 -61t-28.5 -66.5t-11 -65q0 -74 57 -113.5t193 -39.5q96 0 159.5 19.5t110.5 43.5l49 -131q-47 -29 -128 -51.5t-222 -22.5q-197 0 -293 73t-96 206q0 37 12 77t30.5 74.5t38 63.5t31.5 45h-188v135h838zM84 795v135h483 q51 53 81 118.5t30 129.5q0 72 -48 104.5t-165 32.5q-82 0 -138.5 -18.5t-103.5 -41.5l-51 138q29 14 59.5 25.5t68.5 20.5t85 14t111 5q174 0 262 -63.5t88 -192.5q0 -78 -31 -148.5t-76 -123.5h183v-135h-838z" />
<glyph unicode="&#x20b6;" d="M68 688h145v731q78 18 167 24.5t177 6.5q94 0 185.5 -18.5t162 -67.5t113.5 -133t43 -215q0 -129 -44 -215t-117 -139.5t-166 -76t-189 -24.5l-162 -2v-145h340v-127h-340v-287h-170v287h-145v127h145v147h-145v127zM561 1307q-53 0 -101 -3.5t-77 -9.5v-594h156 q61 0 122.5 12.5t110.5 47.5t80 95t29 159q2 84 -24 140t-70 90t-102 48.5t-124 14.5z" />
<glyph unicode="&#x20b7;" d="M68 688h145v731q78 18 167 24.5t177 6.5q94 0 185.5 -18.5t162 -67.5t113.5 -133t43 -215q0 -129 -44 -215t-117 -139.5t-166 -76t-189 -24.5l-162 -2v-145h340v-127h-340v-287h-170v287h-145v127h145v147h-145v127zM561 1307q-53 0 -101 -3.5t-77 -9.5v-594h156 q61 0 122.5 12.5t110.5 47.5t80 95t29 159q2 84 -24 140t-70 90t-102 48.5t-124 14.5z" />
<glyph unicode="&#x20b9;" d="M68 688h145v731q78 18 167 24.5t177 6.5q94 0 185.5 -18.5t162 -67.5t113.5 -133t43 -215q0 -129 -44 -215t-117 -139.5t-166 -76t-189 -24.5l-162 -2v-145h340v-127h-340v-287h-170v287h-145v127h145v147h-145v127zM561 1307q-53 0 -101 -3.5t-77 -9.5v-594h156 q61 0 122.5 12.5t110.5 47.5t80 95t29 159q2 84 -24 140t-70 90t-102 48.5t-124 14.5z" />
<glyph unicode="&#x20ba;" d="M68 688h145v731q78 18 167 24.5t177 6.5q94 0 185.5 -18.5t162 -67.5t113.5 -133t43 -215q0 -129 -44 -215t-117 -139.5t-166 -76t-189 -24.5l-162 -2v-145h340v-127h-340v-287h-170v287h-145v127h145v147h-145v127zM561 1307q-53 0 -101 -3.5t-77 -9.5v-594h156 q61 0 122.5 12.5t110.5 47.5t80 95t29 159q2 84 -24 140t-70 90t-102 48.5t-124 14.5z" />
<glyph unicode="&#x20bb;" d="M68 688h145v731q78 18 167 24.5t177 6.5q94 0 185.5 -18.5t162 -67.5t113.5 -133t43 -215q0 -129 -44 -215t-117 -139.5t-166 -76t-189 -24.5l-162 -2v-145h340v-127h-340v-287h-170v287h-145v127h145v147h-145v127zM561 1307q-53 0 -101 -3.5t-77 -9.5v-594h156 q61 0 122.5 12.5t110.5 47.5t80 95t29 159q2 84 -24 140t-70 90t-102 48.5t-124 14.5z" />
<glyph unicode="&#x20bc;" d="M68 688h145v731q78 18 167 24.5t177 6.5q94 0 185.5 -18.5t162 -67.5t113.5 -133t43 -215q0 -129 -44 -215t-117 -139.5t-166 -76t-189 -24.5l-162 -2v-145h340v-127h-340v-287h-170v287h-145v127h145v147h-145v127zM561 1307q-53 0 -101 -3.5t-77 -9.5v-594h156 q61 0 122.5 12.5t110.5 47.5t80 95t29 159q2 84 -24 140t-70 90t-102 48.5t-124 14.5z" />
<glyph unicode="&#x20bd;" d="M68 688h145v731q78 18 167 24.5t177 6.5q94 0 185.5 -18.5t162 -67.5t113.5 -133t43 -215q0 -129 -44 -215t-117 -139.5t-166 -76t-189 -24.5l-162 -2v-145h340v-127h-340v-287h-170v287h-145v127h145v147h-145v127zM561 1307q-53 0 -101 -3.5t-77 -9.5v-594h156 q61 0 122.5 12.5t110.5 47.5t80 95t29 159q2 84 -24 140t-70 90t-102 48.5t-124 14.5z" />
<glyph unicode="&#x20be;" d="M68 688h145v731q78 18 167 24.5t177 6.5q94 0 185.5 -18.5t162 -67.5t113.5 -133t43 -215q0 -129 -44 -215t-117 -139.5t-166 -76t-189 -24.5l-162 -2v-145h340v-127h-340v-287h-170v287h-145v127h145v147h-145v127zM561 1307q-53 0 -101 -3.5t-77 -9.5v-594h156 q61 0 122.5 12.5t110.5 47.5t80 95t29 159q2 84 -24 140t-70 90t-102 48.5t-124 14.5z" />
<glyph unicode="&#x20bf;" d="M68 688h145v731q78 18 167 24.5t177 6.5q94 0 185.5 -18.5t162 -67.5t113.5 -133t43 -215q0 -129 -44 -215t-117 -139.5t-166 -76t-189 -24.5l-162 -2v-145h340v-127h-340v-287h-170v287h-145v127h145v147h-145v127zM561 1307q-53 0 -101 -3.5t-77 -9.5v-594h156 q61 0 122.5 12.5t110.5 47.5t80 95t29 159q2 84 -24 140t-70 90t-102 48.5t-124 14.5z" />
<glyph unicode="&#x20c0;" d="M68 688h145v731q78 18 167 24.5t177 6.5q94 0 185.5 -18.5t162 -67.5t113.5 -133t43 -215q0 -129 -44 -215t-117 -139.5t-166 -76t-189 -24.5l-162 -2v-145h340v-127h-340v-287h-170v287h-145v127h145v147h-145v127zM561 1307q-53 0 -101 -3.5t-77 -9.5v-594h156 q61 0 122.5 12.5t110.5 47.5t80 95t29 159q2 84 -24 140t-70 90t-102 48.5t-124 14.5z" />
<glyph unicode="&#x20c1;" d="M68 688h145v731q78 18 167 24.5t177 6.5q94 0 185.5 -18.5t162 -67.5t113.5 -133t43 -215q0 -129 -44 -215t-117 -139.5t-166 -76t-189 -24.5l-162 -2v-145h340v-127h-340v-287h-170v287h-145v127h145v147h-145v127zM561 1307q-53 0 -101 -3.5t-77 -9.5v-594h156 q61 0 122.5 12.5t110.5 47.5t80 95t29 159q2 84 -24 140t-70 90t-102 48.5t-124 14.5z" />
<glyph unicode="&#x20c2;" d="M68 688h145v731q78 18 167 24.5t177 6.5q94 0 185.5 -18.5t162 -67.5t113.5 -133t43 -215q0 -129 -44 -215t-117 -139.5t-166 -76t-189 -24.5l-162 -2v-145h340v-127h-340v-287h-170v287h-145v127h145v147h-145v127zM561 1307q-53 0 -101 -3.5t-77 -9.5v-594h156 q61 0 122.5 12.5t110.5 47.5t80 95t29 159q2 84 -24 140t-70 90t-102 48.5t-124 14.5z" />
<glyph unicode="&#x20c3;" d="M68 688h145v731q78 18 167 24.5t177 6.5q94 0 185.5 -18.5t162 -67.5t113.5 -133t43 -215q0 -129 -44 -215t-117 -139.5t-166 -76t-189 -24.5l-162 -2v-145h340v-127h-340v-287h-170v287h-145v127h145v147h-145v127zM561 1307q-53 0 -101 -3.5t-77 -9.5v-594h156 q61 0 122.5 12.5t110.5 47.5t80 95t29 159q2 84 -24 140t-70 90t-102 48.5t-124 14.5z" />
<glyph unicode="&#x20c4;" d="M68 688h145v731q78 18 167 24.5t177 6.5q94 0 185.5 -18.5t162 -67.5t113.5 -133t43 -215q0 -129 -44 -215t-117 -139.5t-166 -76t-189 -24.5l-162 -2v-145h340v-127h-340v-287h-170v287h-145v127h145v147h-145v127zM561 1307q-53 0 -101 -3.5t-77 -9.5v-594h156 q61 0 122.5 12.5t110.5 47.5t80 95t29 159q2 84 -24 140t-70 90t-102 48.5t-124 14.5z" />
<glyph unicode="&#x20c5;" d="M68 688h145v731q78 18 167 24.5t177 6.5q94 0 185.5 -18.5t162 -67.5t113.5 -133t43 -215q0 -129 -44 -215t-117 -139.5t-166 -76t-189 -24.5l-162 -2v-145h340v-127h-340v-287h-170v287h-145v127h145v147h-145v127zM561 1307q-53 0 -101 -3.5t-77 -9.5v-594h156 q61 0 122.5 12.5t110.5 47.5t80 95t29 159q2 84 -24 140t-70 90t-102 48.5t-124 14.5z" />
<glyph unicode="&#x20c6;" d="M68 688h145v731q78 18 167 24.5t177 6.5q94 0 185.5 -18.5t162 -67.5t113.5 -133t43 -215q0 -129 -44 -215t-117 -139.5t-166 -76t-189 -24.5l-162 -2v-145h340v-127h-340v-287h-170v287h-145v127h145v147h-145v127zM561 1307q-53 0 -101 -3.5t-77 -9.5v-594h156 q61 0 122.5 12.5t110.5 47.5t80 95t29 159q2 84 -24 140t-70 90t-102 48.5t-124 14.5z" />
<glyph unicode="&#x20c7;" d="M68 688h145v731q78 18 167 24.5t177 6.5q94 0 185.5 -18.5t162 -67.5t113.5 -133t43 -215q0 -129 -44 -215t-117 -139.5t-166 -76t-189 -24.5l-162 -2v-145h340v-127h-340v-287h-170v287h-145v127h145v147h-145v127zM561 1307q-53 0 -101 -3.5t-77 -9.5v-594h156 q61 0 122.5 12.5t110.5 47.5t80 95t29 159q2 84 -24 140t-70 90t-102 48.5t-124 14.5z" />
<glyph unicode="&#x20c8;" d="M68 688h145v731q78 18 167 24.5t177 6.5q94 0 185.5 -18.5t162 -67.5t113.5 -133t43 -215q0 -129 -44 -215t-117 -139.5t-166 -76t-189 -24.5l-162 -2v-145h340v-127h-340v-287h-170v287h-145v127h145v147h-145v127zM561 1307q-53 0 -101 -3.5t-77 -9.5v-594h156 q61 0 122.5 12.5t110.5 47.5t80 95t29 159q2 84 -24 140t-70 90t-102 48.5t-124 14.5z" />
<glyph unicode="&#x20c9;" d="M68 688h145v731q78 18 167 24.5t177 6.5q94 0 185.5 -18.5t162 -67.5t113.5 -133t43 -215q0 -129 -44 -215t-117 -139.5t-166 -76t-189 -24.5l-162 -2v-145h340v-127h-340v-287h-170v287h-145v127h145v147h-145v127zM561 1307q-53 0 -101 -3.5t-77 -9.5v-594h156 q61 0 122.5 12.5t110.5 47.5t80 95t29 159q2 84 -24 140t-70 90t-102 48.5t-124 14.5z" />
<glyph unicode="&#x20ca;" d="M68 688h145v731q78 18 167 24.5t177 6.5q94 0 185.5 -18.5t162 -67.5t113.5 -133t43 -215q0 -129 -44 -215t-117 -139.5t-166 -76t-189 -24.5l-162 -2v-145h340v-127h-340v-287h-170v287h-145v127h145v147h-145v127zM561 1307q-53 0 -101 -3.5t-77 -9.5v-594h156 q61 0 122.5 12.5t110.5 47.5t80 95t29 159q2 84 -24 140t-70 90t-102 48.5t-124 14.5z" />
<glyph unicode="&#x20cb;" d="M68 688h145v731q78 18 167 24.5t177 6.5q94 0 185.5 -18.5t162 -67.5t113.5 -133t43 -215q0 -129 -44 -215t-117 -139.5t-166 -76t-189 -24.5l-162 -2v-145h340v-127h-340v-287h-170v287h-145v127h145v147h-145v127zM561 1307q-53 0 -101 -3.5t-77 -9.5v-594h156 q61 0 122.5 12.5t110.5 47.5t80 95t29 159q2 84 -24 140t-70 90t-102 48.5t-124 14.5z" />
<glyph unicode="&#x20cc;" d="M68 688h145v731q78 18 167 24.5t177 6.5q94 0 185.5 -18.5t162 -67.5t113.5 -133t43 -215q0 -129 -44 -215t-117 -139.5t-166 -76t-189 -24.5l-162 -2v-145h340v-127h-340v-287h-170v287h-145v127h145v147h-145v127zM561 1307q-53 0 -101 -3.5t-77 -9.5v-594h156 q61 0 122.5 12.5t110.5 47.5t80 95t29 159q2 84 -24 140t-70 90t-102 48.5t-124 14.5z" />
<glyph unicode="&#x20cd;" d="M68 688h145v731q78 18 167 24.5t177 6.5q94 0 185.5 -18.5t162 -67.5t113.5 -133t43 -215q0 -129 -44 -215t-117 -139.5t-166 -76t-189 -24.5l-162 -2v-145h340v-127h-340v-287h-170v287h-145v127h145v147h-145v127zM561 1307q-53 0 -101 -3.5t-77 -9.5v-594h156 q61 0 122.5 12.5t110.5 47.5t80 95t29 159q2 84 -24 140t-70 90t-102 48.5t-124 14.5z" />
<glyph unicode="&#x20ce;" d="M68 688h145v731q78 18 167 24.5t177 6.5q94 0 185.5 -18.5t162 -67.5t113.5 -133t43 -215q0 -129 -44 -215t-117 -139.5t-166 -76t-189 -24.5l-162 -2v-145h340v-127h-340v-287h-170v287h-145v127h145v147h-145v127zM561 1307q-53 0 -101 -3.5t-77 -9.5v-594h156 q61 0 122.5 12.5t110.5 47.5t80 95t29 159q2 84 -24 140t-70 90t-102 48.5t-124 14.5z" />
<glyph unicode="&#x20cf;" d="M68 688h145v731q78 18 167 24.5t177 6.5q94 0 185.5 -18.5t162 -67.5t113.5 -133t43 -215q0 -129 -44 -215t-117 -139.5t-166 -76t-189 -24.5l-162 -2v-145h340v-127h-340v-287h-170v287h-145v127h145v147h-145v127zM561 1307q-53 0 -101 -3.5t-77 -9.5v-594h156 q61 0 122.5 12.5t110.5 47.5t80 95t29 159q2 84 -24 140t-70 90t-102 48.5t-124 14.5z" />
<glyph unicode="&#x2113;" horiz-adv-x="1024" d="M831 61q-45 -29 -117.5 -57.5t-144.5 -28.5q-129 0 -187 62.5t-58 195.5v213l-103 -90l-71 90l174 152v520q0 90 20.5 154.5t56 105.5t83.5 60.5t104 19.5q98 0 161.5 -60.5t63.5 -183.5q0 -152 -82 -321.5t-268 -349.5v-287q0 -90 34.5 -124t84.5 -34q51 0 112.5 21.5 t102.5 44.5zM682 1204q0 70 -28.5 100.5t-65.5 30.5q-25 0 -47.5 -7t-40 -28.5t-27.5 -59.5t-10 -99v-434q115 133 167 256.5t52 240.5z" />
<glyph unicode="&#x2116;" horiz-adv-x="2095" d="M1370 641h569v-152h-569v152zM432 930l-110 215h-9l25 -207v-938h-164v1456h90l647 -948l105 -205h10l-22 197v934h163v-1457h-94zM1331 1110q0 92 24.5 157.5t66.5 108.5t100.5 62.5t126.5 19.5t126 -18.5t100 -59.5t66.5 -107.5t24.5 -162.5t-24.5 -162.5t-66.5 -107.5 t-100.5 -59.5t-125.5 -18.5q-68 0 -126.5 18.5t-100.5 59.5t-66.5 107.5t-24.5 162.5zM1483 1110q0 -123 44 -176t122 -53q39 0 69.5 11t52 36.5t33 69.5t11.5 112t-11.5 112t-33 69.5t-52 36.5t-69.5 11q-78 0 -122 -48t-44 -181z" />
<glyph unicode="&#x2122;" horiz-adv-x="1812" d="M795 1294h-279v-598h-160v598h-278v140h717v-140zM1577 1038l20 211h-8l-80 -174l-178 -287h-67l-183 285l-73 176h-9l27 -209v-344h-149v738h159l215 -344l58 -119h2l61 123l199 340h162v-738h-156v342z" />
<glyph unicode="&#x212e;" horiz-adv-x="1228" d="M322 530v-370q127 -121 296 -121q254 0 396 246l71 -43q-88 -135 -202.5 -206t-264.5 -71q-121 0 -219 44t-166.5 120t-105.5 179.5t-37 221.5q0 121 38 224.5t107.5 179.5t167 119t215.5 43q127 0 224.5 -45t165 -122t102.5 -179.5t39 -219.5h-827zM918 604v297 q-129 123 -302 123q-176 0 -294 -123v-297h596z" />
<glyph unicode="&#x2202;" horiz-adv-x="1034" d="M588 1044q86 0 127 -15t76 -44h10q-6 94 -46 158.5t-99.5 104.5t-131 58.5t-141.5 18.5h-22q-11 0 -21 -2l31 135q139 0 250.5 -29.5t189.5 -101.5t119 -190.5t41 -296.5q0 -221 -40 -384t-110.5 -269.5t-170 -159t-216.5 -52.5q-197 0 -295 103.5t-98 294.5 q0 123 35 242.5t103.5 215t171 154.5t237.5 59zM575 901q-74 0 -140 -40t-116.5 -111.5t-79 -171t-28.5 -216.5q0 -47 12.5 -92t41 -78.5t73.5 -53t111 -19.5q102 0 169.5 62.5t108.5 162.5t57.5 223t16.5 240q-37 43 -88.5 68.5t-137.5 25.5z" />
<glyph unicode="&#x220f;" horiz-adv-x="1388" d="M1047 1282h-703v-1692h-170v1844h1043v-1844h-170v1692z" />
<glyph unicode="&#x2211;" horiz-adv-x="1034" d="M256 -184l-82 -74h782v-152h-927v152l458 709l70 61l-72 66l-456 704v152h927v-152h-774l88 -74l441 -684z" />
<glyph unicode="&#x2212;" horiz-adv-x="1034" d="M82 766h868v-148h-868v148z" />
<glyph unicode="&#x2215;" horiz-adv-x="1034" d="M963 1460l106 -71l-997 -1414l-106 74z" />
<glyph unicode="&#x221a;" horiz-adv-x="1034" d="M342 913l188 -464l48 -234h4l39 238l303 981h153l-463 -1457h-63l-322 789h-247v147h360z" />
<glyph unicode="&#x221e;" horiz-adv-x="1753" d="M866 584q-74 -119 -180 -184.5t-225 -65.5q-72 0 -134.5 25.5t-110.5 74.5t-75.5 119t-27.5 156q0 92 26.5 164.5t74.5 124t114.5 79t146.5 27.5q143 0 246.5 -64.5t165.5 -165.5q88 123 196.5 176.5t227.5 53.5q72 0 132 -25.5t104 -75t68.5 -118t24.5 -154.5 q0 -92 -26.5 -165.5t-75.5 -125t-115.5 -79t-146.5 -27.5q-72 0 -133.5 20.5t-112.5 54t-92 80t-72 95.5zM1280 485q84 0 142.5 65.5t58.5 176.5q0 43 -12.5 84t-38 72.5t-64.5 50t-90 18.5q-84 0 -171 -47t-159 -145q25 -55 59.5 -105.5t77.5 -87.5t92.5 -59.5t104.5 -22.5 zM473 952q-41 0 -78 -18.5t-64.5 -50t-43 -75.5t-15.5 -93q0 -98 59.5 -164t164.5 -66q45 0 89 16.5t84 46.5t74.5 67.5t63.5 80.5q-55 115 -139 185.5t-195 70.5z" />
<glyph unicode="&#x222b;" horiz-adv-x="716" d="M438 -119q0 -160 -67.5 -233.5t-212.5 -73.5q-72 0 -135.5 14.5t-112.5 34.5l45 131q47 -18 93 -27.5t93 -9.5q78 0 105.5 49.5t27.5 170.5v1214q0 160 68 233.5t215 73.5q70 0 133.5 -14t112.5 -35l-43 -131q-47 18 -93 27.5t-96 9.5q-78 0 -105.5 -47t-27.5 -168v-1219 z" />
<glyph unicode="&#x2248;" horiz-adv-x="1034" d="M63 909q88 68 160 94.5t131 26.5q57 0 106.5 -17.5t94.5 -39t88 -38.5t90 -17q39 0 80 16t88 57l70 -125q-78 -53 -140.5 -74.5t-113.5 -21.5q-55 0 -101.5 17.5t-88.5 39t-84 39t-91 17.5q-47 0 -100 -21.5t-119 -75.5zM63 569q88 68 160 94.5t131 26.5 q57 0 106.5 -17.5t94.5 -39t88 -38.5t90 -17q39 0 80 16t88 57l70 -125q-78 -53 -140.5 -74.5t-113.5 -21.5q-55 0 -101.5 17.5t-88.5 39t-84 39t-91 17.5q-47 0 -100 -21.5t-119 -75.5z" />
<glyph unicode="&#x2260;" horiz-adv-x="1034" d="M82 936h467l125 281h147l-125 -281h254v-148h-317l-86 -192h403v-147h-467l-137 -314h-147l137 314h-254v147h317l86 192h-403v148z" />
<glyph unicode="&#x2264;" horiz-adv-x="1034" d="M940 168l-72 -129l-753 430l71 131zM74 872v60l774 473l78 -127l-486 -297l-186 -78l184 -65l498 -295l-78 -123z" />
<glyph unicode="&#x2265;" horiz-adv-x="1034" d="M936 479l-750 -440l-77 127l751 440zM938 952v-59l-774 -473l-78 127l485 297l187 78l-185 65l-497 295l78 123z" />
<glyph unicode="&#x25ca;" horiz-adv-x="1034" d="M547 -23h-68l-409 723l409 756h68l416 -745zM584 330l209 360l-224 397l-57 181h-4l-57 -185l-209 -360l223 -397l59 -181h2z" />
<glyph unicode="&#x2c67;" horiz-adv-x="1447" d="M1032 657h-688v-657h-170v1434h170v-625h688v625h170v-1282h189v-416h-119l-31 264h-209v657z" />
<glyph unicode="&#x2c68;" horiz-adv-x="1185" d="M815 0v584q0 80 -9 140t-33.5 100t-66.5 60.5t-110 20.5q-96 0 -174 -62.5t-100 -160.5v-682h-164v1434h164v-525h8q53 63 127.5 101.5t185.5 38.5q86 0 149.5 -19.5t105.5 -69t61.5 -132.5t19.5 -210v-475h151v-403h-110l-31 260h-174z" />
<glyph unicode="&#xe000;" horiz-adv-x="1025" d="M0 1025h1025v-1025h-1025v1025z" />
<glyph unicode="&#xf401;" horiz-adv-x="4" d="M-485 1782h233v-43l-334 -199h-141z" />
<glyph unicode="&#xf406;" horiz-adv-x="952" d="M211 1784q35 -70 106.5 -108t167.5 -38q98 0 166 43t97 103l81 -39q-18 -59 -52 -105.5t-80 -79t-101 -49t-113 -16.5q-55 0 -109.5 14.5t-101.5 43t-86 74.5t-63 108z" />
<glyph unicode="&#xf407;" horiz-adv-x="587" d="M303 -88q86 -16 124 -53t38 -101q0 -84 -67.5 -134t-182.5 -50q-23 0 -45.5 2t-46.5 6l14 101q12 -2 22.5 -3.5t47.5 -3.5q25 0 48.5 3.5t36.5 13.5t17 22.5t4 24.5q2 59 -176 76l99 184h116z" />
<glyph unicode="&#xf408;" horiz-adv-x="901" d="M395 1782h123l260 -209v-43h-166l-123 100l-34 72l-39 -70l-131 -102h-162v45z" />
<glyph unicode="&#xf409;" horiz-adv-x="481" d="M123 -209q0 43 31.5 69.5t72.5 26.5q51 0 91 -35.5t40 -117.5q0 -53 -18 -93t-44 -70t-53.5 -47.5t-47.5 -25.5l-58 66q41 23 65.5 57.5t24.5 83.5q-8 -2 -20 -2q-37 0 -60.5 24.5t-23.5 63.5z" />
<glyph unicode="&#xf40a;" horiz-adv-x="397" d="M82 1350q0 47 29.5 73.5t76.5 26.5q57 0 93 -36t36 -107q0 -68 -19 -117t-47 -83t-58.5 -54.5t-53.5 -28.5l-51 70q47 25 73.5 61.5t26.5 95.5q-8 -2 -22 -2q-39 0 -61.5 28t-22.5 73z" />
<glyph unicode="&#xf40b;" horiz-adv-x="503" d="M123 1632q0 43 33.5 75t93.5 32q59 0 95 -32t36 -75q0 -47 -36 -77.5t-95 -30.5t-93 30.5t-34 77.5z" />
<glyph unicode="&#xf40c;" horiz-adv-x="677" d="M123 1573q0 76 51 125t164 49q102 0 159.5 -44t57.5 -130q0 -74 -54.5 -122t-162.5 -48q-104 0 -159.5 46t-55.5 124zM248 1573q0 -35 21.5 -58.5t68.5 -23.5q45 0 68.5 22.5t23.5 59.5q0 39 -22.5 62.5t-69.5 23.5q-45 0 -67.5 -23.5t-22.5 -62.5z" />
<glyph unicode="&#xf40d;" horiz-adv-x="897" d="M123 1608q63 66 117.5 89t103.5 23q39 0 76 -10t70.5 -23.5t66.5 -23.5t64 -10q53 0 102 43l51 -88q-55 -51 -104 -70.5t-92 -19.5q-39 0 -74 10t-69 23.5t-66.5 23.5t-65.5 10t-64.5 -13t-66.5 -48z" />
<glyph unicode="&#xf40e;" horiz-adv-x="624" d="M446 20q-72 -33 -112.5 -83t-40.5 -115q0 -41 26.5 -73t77.5 -32q39 0 82 21l23 -88q-31 -25 -82 -37t-94 -12q-92 0 -147.5 49t-55.5 133t56.5 143.5t154.5 93.5h112z" />
<glyph unicode="&#xf486;" horiz-adv-x="1196" d="M1038 1106q0 -51 -16 -104.5t-49 -99.5t-84 -81t-121 -53v-8q61 -10 117.5 -35t99.5 -68t69.5 -104t26.5 -145q0 -111 -46 -192t-120.5 -132t-171 -75.5t-196.5 -24.5h-82q-47 0 -98.5 3t-102.5 8t-90 15v1411q76 12 176.5 20.5t218.5 8.5q80 0 163 -13.5t150.5 -51 t111.5 -105.5t44 -174zM563 131q66 0 127.5 15.5t108.5 49t74.5 83t27.5 116.5q0 84 -33.5 135.5t-88 80t-122 38.5t-135.5 10h-178v-514q14 -4 41 -6t57.5 -4t63 -3t57.5 -1zM451 803q35 0 84 2t81 6q49 16 92.5 39.5t77 55.5t53 74t19.5 91q0 68 -25.5 112t-68.5 70.5 t-98.5 38t-112.5 11.5q-68 0 -124 -3.5t-85 -9.5v-487h107zM637 1782h233v-43l-334 -199h-141z" />
<glyph unicode="&#xf487;" horiz-adv-x="1105" d="M158 1434h164v-510h8q47 59 119.5 92t158.5 33q199 0 298.5 -127t99.5 -394q0 -268 -131.5 -407t-368.5 -139q-115 0 -208 24.5t-140 52.5v1375zM580 905q-102 0 -166 -57t-92 -162v-516q39 -23 94 -34t114 -11q139 0 222.5 98.5t83.5 306.5q0 80 -14.5 150t-45.5 119 t-78.5 77.5t-117.5 28.5zM641 1475h182v-43l-207 -263h-96z" />
<glyph unicode="&#xf488;" horiz-adv-x="1058" d="M174 1434h780v-152h-610v-489h569v-152h-569v-641h-170v1434zM637 1782h233v-43l-334 -199h-141z" />
<glyph unicode="&#xf489;" horiz-adv-x="653" d="M45 1024h160v57q0 94 15.5 164t50 114t90 65.5t137.5 21.5q66 0 116 -8t105 -31l-37 -137q-47 20 -89 26.5t-79 6.5q-53 0 -83 -16.5t-43 -48.5t-16 -78t-3 -107v-29h272v-143h-272v-881h-164v881h-160v143zM590 1782h233v-43l-334 -199h-141z" />
<glyph unicode="&#xf49e;" horiz-adv-x="1239" d="M-6 1206h180v228h170v-228h449v-135h-449v-256q55 31 146.5 61.5t205.5 30.5q86 0 159 -19.5t124 -65.5t79.5 -123.5t28.5 -192.5v-506h-169v475q0 281 -254 281q-98 0 -182.5 -25.5t-137.5 -68.5v-662h-170v1071h-180v135z" />
<glyph unicode="&#xf49f;" horiz-adv-x="1120" d="M-6 1294h164v140h164v-140h327v-123h-327v-262h8q53 63 127.5 101.5t185.5 38.5q86 0 149.5 -19.5t105.5 -69t61.5 -132.5t19.5 -210v-618h-164v584q0 80 -9 140t-33.5 100t-66.5 60.5t-110 20.5q-96 0 -174 -62.5t-100 -160.5v-682h-164v1171h-164v123z" />
<glyph unicode="&#xf4c6;" horiz-adv-x="1239" d="M324 1434v-476q0 -281 254 -280q96 0 180 25.5t137 68.5v662h170v-1489q0 -190 -68.5 -284.5t-214.5 -94.5q-16 0 -34.5 1t-28.5 3v139q57 0 92 17.5t53.5 53.5t24.5 91t6 129v618q-55 -31 -145.5 -61.5t-206.5 -30.5q-86 0 -158 19.5t-123 65.5t-79.5 124t-28.5 193v506 h170z" />
<glyph unicode="&#xf4c7;" horiz-adv-x="1003" d="M682 430q-33 -20 -97.5 -45t-176.5 -25q-76 0 -133.5 16.5t-96.5 57.5t-58.5 108.5t-19.5 170.5v311h164v-279q0 -55 6 -99t24.5 -76.5t53.5 -49t92 -16.5q92 0 151.5 20.5t90.5 44.5v455h164v-1079q0 -190 -65.5 -284.5t-209.5 -94.5q-16 0 -30.5 1t-30.5 3v139 q57 0 91 17.5t52.5 53.5t23.5 91t5 129v430z" />
<glyph unicode="&#xf4cc;" horiz-adv-x="1132" d="M578 678l53 -182h10l41 188l274 750h174l-362 -932q-55 -145 -97 -242.5t-85 -158t-92.5 -86t-120.5 -25.5q-68 0 -108 11t-75 34l52 141q41 -23 75.5 -29t63.5 -6q57 0 96 58.5t68 173.5l-531 1061h197zM660 1782h233v-43l-334 -199h-141z" />
<glyph unicode="&#xf4cd;" horiz-adv-x="954" d="M459 360l57 -196h10l45 198l199 662h166l-303 -920l-69 -194q-34 -94 -74.5 -168t-92 -118t-118.5 -44q-74 0 -121 21l28 141q27 -10 52 -10q57 0 110 60.5t88 207.5l-411 1024h188zM547 1475h182v-43l-207 -263h-96z" />
<glyph unicode="&#xf4d6;" horiz-adv-x="1181" d="M307 809h590q-10 125 -49 220t-100.5 157.5t-142.5 91.5t-175 29q-96 0 -171 -16.5t-122 -45.5l-45 133q63 37 157.5 58.5t201.5 21.5q131 0 243.5 -41t195.5 -130t130 -230.5t47 -339.5q0 -201 -53 -342.5t-144.5 -230.5t-211 -129t-250.5 -40q-102 0 -181.5 14.5 t-134.5 37.5l45 149q47 -23 123 -36t158 -13t165 25.5t150.5 89t112.5 166t53 249.5h-592v152zM334 1632q0 43 33.5 75t93.5 32q59 0 95 -32t36 -75q0 -47 -36 -77.5t-95 -30.5t-93 30.5t-34 77.5z" />
<glyph unicode="&#xf4d7;" horiz-adv-x="952" d="M248 584h434q-10 145 -85 233t-212 88q-84 0 -146.5 -22.5t-101.5 -48.5l-57 124q63 43 145 67t191 24q227 0 331.5 -141.5t104.5 -395.5q0 -262 -121 -399.5t-336 -137.5q-96 0 -177 15.5t-136 46.5l47 139q47 -27 115.5 -42t134.5 -15q287 -2 305 330h-436v135z M281 1335q0 47 31.5 81t81.5 34q49 0 83.5 -34t34.5 -81t-34.5 -77.5t-83.5 -30.5t-81 30.5t-32 77.5z" />
<glyph unicode="&#xf50a;" horiz-adv-x="1107" d="M285 678v143h32h45q27 0 54.5 2t53.5 3t42 5q53 8 100 28t82 50.5t55.5 71.5t20.5 90q0 68 -22.5 113t-62.5 72.5t-92 39t-112 11.5q-111 0 -188.5 -15.5t-124.5 -38.5l-45 136q41 23 147.5 46t239.5 23q82 0 161 -17.5t141 -57.5t100 -108.5t38 -168.5 q0 -102 -67.5 -195.5t-202.5 -134.5v-8q145 -20 229 -108.5t84 -235.5q0 -106 -37.5 -185t-100 -133.5t-145.5 -86t-173 -39.5l-29 -347h-107l-39 344q-94 4 -159.5 18.5t-112.5 33.5l43 153q47 -23 132 -38t206 -15q63 0 124.5 17.5t110 52t78 88t29.5 127.5 q0 129 -90 189.5t-236 70.5q-25 2 -46 3t-44 1h-112z" />
<glyph unicode="&#xf50b;" horiz-adv-x="903" d="M256 457v133h143q37 0 73 12t64.5 33.5t46 51.5t17.5 63q0 80 -55.5 112.5t-165.5 32.5q-80 0 -146.5 -24.5t-103.5 -47.5l-47 127q61 35 144 61.5t198 26.5q340 0 340 -252q0 -72 -46 -140t-132 -97v-8q121 -23 169 -86.5t48 -167.5q0 -111 -77 -192t-232 -105l-29 -357 h-107l-39 351q-82 4 -138 21.5t-103 39.5l47 135q47 -27 113.5 -41t144.5 -14q125 0 190.5 43t65.5 131q0 74 -61.5 116t-202.5 42h-119z" />
<glyph unicode="&#xf50c;" horiz-adv-x="1169" d="M1092 59q-53 -41 -131 -59t-170 -23l-35 -65q86 -16 124 -53t38 -101q0 -80 -66 -132t-184 -52q-23 0 -45.5 2t-47.5 6l19 80q12 -2 22 -2h21q45 0 70.5 8t39 19.5t16.5 26t3 26.5q0 57 -176 76l86 164q-119 8 -221.5 56t-178 138t-118.5 225.5t-43 317.5q0 201 54 341 t143 229t200 130t225 41q123 0 201 -13t133 -36l-41 -149q-98 47 -280 47q-84 0 -166 -31t-146.5 -100.5t-103.5 -182t-39 -276.5q0 -147 37 -258t101.5 -184.5t151.5 -110.5t189 -37q92 0 161 18.5t116 47.5z" />
</font>
</defs>
</svg>
